Дастархан (Тамара Муканова) [1988, Рисованный мультфильм, WEBRip]

Ответить на тему
 
Автор Сообщение

user ®

Стаж: 7 лет 7 месяцев

Сообщений: 20008

Пост Пост: #1 от 01-Июн-2014 00:50

[Цитировать]

Дастархан
Страна: СССР
Жанр: Рисованный мультфильм
Продолжительность: 00:08:39
Год выпуска: 1988
Русские субтитры: нет
Режиссёр: Тамара Муканова
Описание: Мультипликационный фильм для детей о простодушном и щедром Абзале, готовом все отдать дорогому гостю.
Доп. информация: «Казахфильм»
Сценарий: А.Орлов
Монтаж:М.Сухорукова
Оператор:К.Кусаев
Композитор:К.Дуйсекеев
Качество: WEBRip
Формат: AVI
Видео: 720x560 (1.29:1), 25 fps, DivX Codec 6.8 ~2198 kbps avg, 0.22 bit/pixel
Аудио: 48 kHz, MPEG Layer 3, 1 ch, ~128.00 kbps avg
Субтитры: нет
Подробные технические данные
ormat : AVIFormat/Info : Audio Video InterleaveFile size : 145 MiBDuration : 8mn 39sOverall bit rate : 2 337 KbpsWriting application : VirtualDubMod 1.5.10.2 (build 2542/release)Writing library : VirtualDubMod build 2542/release
VideoID : 0Format : MPEG-4 VisualFormat settings, BVOP : 3Format settings, QPel : NoFormat settings, GMC : No warppointsFormat settings, Matrix : Default (H.263)Muxing mode : Packed bitstreamCodec ID : DX50Codec ID/Hint : DivX 5Duration : 8mn 39sBit rate : 2 199 KbpsWidth : 720 pixelsHeight : 560 pixelsDisplay aspect ratio : 5:4Original display aspect ratio : 1.286Frame rate : 25.000 fpsColor space : YUVChroma subsampling : 4:2:0Bit depth : 8 bitsScan type : ProgressiveCompression mode : LossyBits/(Pixel*Frame) : 0.218Stream size : 136 MiB (94%)Writing library : DivX 6.8.0 (UTC 2007-12-04)
AudioID : 1Format : MPEG AudioFormat version : Version 1Format profile : Layer 3Codec ID : 55Codec ID/Hint : MP3Duration : 8mn 39sBit rate mode : ConstantBit rate : 128 KbpsChannel(s) : 1 channelSampling rate : 48.0 KHzCompression mode : LossyStream size : 7.93 MiB (5%)Alignment : Aligned on interleavesInterleave, duration : 40 ms (1.00 video frame)Interleave, preload duration : 504 msWriting library : LAME3.97Encoding settings : -m m -V 4 -q 0 -b 128
Скриншоты
Скачать

Скачать торрент!

Как скачивать? · Что такое торрент? · Рейтинг и ограничения

Сайт не распространяет и не хранит электронные версии произведений, а лишь предоставляет доступ к создаваемому пользователями каталогу ссылок на торрент-файлы, которые содержат только списки хеш-сумм

[Профиль] [ЛС]
Показать сообщения:    
Ответить на тему

Текущее время: Сегодня 05:53

Часовой пояс: GMT + 4



Вы не можете начинать темы
Вы не можете отвечать на сообщения
Вы не можете редактировать свои сообщения
Вы не можете удалять свои сообщения
Вы не можете голосовать в опросах
Вы не можете прикреплять файлы к сообщениям
Вы не можете скачивать файлы