Новый Человек-паук: Высокое напряжение / The Amazing Spider-Man 2 (Марк Уэбб / Marc Webb) [2014, США, фэнтези, боевик, приключения, TS] Dub

Ответить на тему
 
Автор Сообщение

user ®

Стаж: 7 лет 7 месяцев

Сообщений: 20008

Пост Пост: #1 от 01-Июн-2014 00:50

[Цитировать]

-Новый Человек-паук: Высокое напряжение / The Amazing Spider-Man 2- Страна: США
Жанр: Фэнтези, Боевик, Приключения
Год выпуска: 2014
Продолжительность: 02:16:47
Перевод: Профессиональный (дублированный)
Cубтитры: нет
Оригинальная аудиодорожка: нет
Режиссер: Марк Уэбб / Marc Webb
Студия: Columbia Pictures, Marvel Enterprises
В ролях:
Эндрю Гарфилд, Джейми Фокс, Эмма Стоун, Салли Филд, Пол Джаматти, Дэнис Лири, Дэйн ДеХаан,Мартин Шин, Крис Зилка, Фрэнк Дил.
Описание:
Питер Паркер под маской Человека-паука по-прежнему спасает мир от злодеев и преступников, а свободное время проводит со своей возлюбленной Гвен, но школьная пора близится к концу, и впереди героев ждет взрослая жизнь. Питер помнит о том, что дал отцу Гвен слово навсегда уйти из жизни девушки, тем самым больше не подвергая ее опасности. Однако сдержать это обещание не так просто. Судьба готовит Питеру сюрпризы: на его пути появится новый противник — Электро, а также ему будет суждено вновь встретиться с давним приятелем Гарри Озборном и узнать много нового о прошлом своей семьи.
Сэмпл: Скачать

Качество видео: TS 'PROPER'
Формат видео: AVI
Видео: Xvid, 720x304, 23.976fps, 1858kbps
Аудио: Dolby AC3, 48000Hz, 2 channels, 192kbps

MediaInfo
General
Format : AVI
Format/Info : Audio Video Interleave
File size : 2.05 GiB
Duration : 2h 16mn
Overall bit rate : 2 144 Kbps
Writing application : VirtualDubMod 1.5.10.2 (build 2540/release)
Writing library : VirtualDubMod build 2540/release
Video
ID : 0
Format : MPEG-4 Visual
Codec ID : XVID
Codec ID/Hint : XviD
Duration : 2h 16mn
Bit rate : 1 858 Kbps
Width : 720 pixels
Height : 304 pixels
Display aspect ratio : 2.35:1
Frame rate : 23.976 fps
Color space : YUV
Chroma subsampling : 4:2:0
Compression mode : Lossy
Bits/(Pixel*Frame) : 0.354
Stream size : 1.78 GiB (87%)
Audio
ID : 1
Format : AC-3
Format/Info : Audio Coding 3
Codec ID : 2000
Duration : 2h 16mn
Bit rate mode : Constant
Bit rate : 192 Kbps
Channel(s) : 2 channels
Sampling rate : 48.0 KHz
Compression mode : Lossy
Stream size : 188 MiB (9%)
Alignment : Aligned on interleaves
Screenshot movie title Screenshots Other Poster
Скачать

Скачать торрент!

Как скачивать? · Что такое торрент? · Рейтинг и ограничения

Сайт не распространяет и не хранит электронные версии произведений, а лишь предоставляет доступ к создаваемому пользователями каталогу ссылок на торрент-файлы, которые содержат только списки хеш-сумм

[Профиль] [ЛС]
Показать сообщения:    
Ответить на тему

Текущее время: Сегодня 12:00

Часовой пояс: GMT + 4



Вы не можете начинать темы
Вы не можете отвечать на сообщения
Вы не можете редактировать свои сообщения
Вы не можете удалять свои сообщения
Вы не можете голосовать в опросах
Вы не можете прикреплять файлы к сообщениям
Вы не можете скачивать файлы