Немой свидетель / Безмолвный свидетель / Silent Witness (Фей Син / Fei Xing) [2013, Китай, детектив, драма, WEB-DLRip] MVO (STEPonee)

Ответить на тему
 
Автор Сообщение

user ®

Стаж: 11 лет

Сообщений: 15151

Пост Пост: #1 от 31-Май-2014 21:40

[Цитировать]

Немой свидетель / Безмолвный свидетель / Silent Witness / 全民目击 / Quan-min-mu-ji
Год выпуска: 2013
Страна: Китай
Жанр: детектив, драма
Продолжительность: 02:00:21
Перевод: любительский многоголосый закадровый (STEPonee)

Оригинальная дорожка: нет
Вшитые субтитры: английские, китайские
Режиссёр: Фей Син (Fei Xing)
В ролях:
  • Сунь Хунлей (Sun Honglei) - бизнесмен Линь Тай
  • Го Фучен (Эйрон Квок) (Aaron Kwok) - Тун Тао, прокурор
  • Юй Нань (Yu Nan) - Чжоу Ли, адвокат
  • Дэн Цзяцзя (Deng Jiajia) - Линь Мэнмэн, дочь Линь Тая
  • Чжао Лисинь (Zhao Lixin) - Сунь Вэй, шофёр Линь Тая
  • Ни Хунцзе (Ni Hongjie) - Су Хун
  • Чень Сычен (Chen Sicheng) - директор Чен
  • Тун Лия (Tong Liya) - Ли Сяони
    Описание
    Линь Мэнмэн, дочь одного из богатейших людей страны - Линь Тая, обвиняется в убийстве его любовницы, известной певицы Ян Дань. Вся страна следит за ходом расследования. Для честолюбивого прокурора Тун Тао этот судебный процесс - редкая возможность подобраться ближе к Линь Таю, которого он давно пытается привлечь к суду за финансовые злоупотребления. Для дорогого адвоката Чжоу Ли - очередное громкое дело, на котором она заработает ещё несколько миллионов. Но в ходе прений и околосудебных интриг выясняются такие подробности, которые ставят всё с ног на голову и заставляют иначе взглянуть на многих действующих лиц разбирательства и их цели. (Юрий Балякин)
    Сэмпл
    Роли озвучивали:
  • Георгий Ерунков
  • Юрий Балякин
  • Елена Рузаева
  • Олег Кондрашов
  • Юлия Холодкова
  • Наталья Скребнева
    Перевод на русский язык: Татьяна Веденкина
    Редакция: Юрий Балякин
    Скриншот c названием фильма
Качество: WEB-DLRip (WEB-DL 720p)
Формат: AVI
Видео: XviD, 720x304 (2,35:1), 23,976 к/с, 2250 кбит/с
Аудио: AC3 2.0, 48 кГц, 192 кбит/с
Отчёт MediaInfo
General
Complete name : Silent.Witness.2013.WEB-DLRip.XviD.AC3.MVO.STEPonee.avi
Format : AVI
Format/Info : Audio Video Interleave
Format profile : OpenDML
File size : 2.06 GiB
Duration : 2h 0mn
Overall bit rate : 2 454 Kbps
Writing application : VirtualDubMod 1.5.10.2 (build 2542/release)
Writing library : VirtualDubMod build 2542/release
Video
ID : 0
Format : MPEG-4 Visual
Format profile : Advanced Simple@L5
Format settings, BVOP : 2
Format settings, QPel : No
Format settings, GMC : No warppoints
Format settings, Matrix : Default (H.263)
Codec ID : XVID
Codec ID/Hint : XviD
Duration : 2h 0mn
Bit rate : 2 250 Kbps
Width : 720 pixels
Height : 304 pixels
Display aspect ratio : 2.35:1
Frame rate : 23.976 fps
Color space : YUV
Chroma subsampling : 4:2:0
Bit depth : 8 bits
Scan type : Progressive
Compression mode : Lossy
Bits/(Pixel*Frame) : 0.429
Stream size : 1.89 GiB (92%)
Writing library : XviD 1.2.1 (UTC 2008-12-04)
Audio
ID : 1
Format : AC-3
Format/Info : Audio Coding 3
Mode extension : CM (complete main)
Format settings, Endianness : Big
Codec ID : 2000
Duration : 2h 0mn
Bit rate mode : Constant
Bit rate : 192 Kbps
Channel(s) : 2 channels
Channel positions : Front: L R
Sampling rate : 48.0 KHz
Bit depth : 16 bits
Compression mode : Lossy
Stream size : 165 MiB (8%)
Alignment : Aligned on interleaves
Interleave, duration : 42 ms (1.00 video frame)
Interleave, preload duration : 512 ms
Скриншоты Подготовка релиза:
  • Юрий Балякин - тайминг, обработка звука, монтаж
  • Екатерина Проц - постер
    Все раздачи студии
[url=http://***/forum/tracker.php?nm=steponee]Все разделы[/url]
[url=http://***/forum/tracker.php?f=915&nm=steponee]Корейские сериалы[/url]
[url=http://***/forum/tracker.php?f=1939&nm=steponee]Японские сериалы[/url]
[url=http://***/forum/tracker.php?f=2412&nm=steponee]Прочие азиатские сериалы[/url]
[url=http://***/forum/tracker.php?f=934&nm=steponee]Азиатские фильмы[/url]
Скачать

Скачать торрент! Немой свидетель / Безмолвный свидетель / Silent Witness (Фей Син / Fei Xing) [2013, Китай, детектив, драма, WEB-DLRip] MVO (STEPonee)

Как скачивать? · Что такое торрент? · Рейтинг и ограничения

Сайт не распространяет и не хранит электронные версии произведений, а лишь предоставляет доступ к создаваемому пользователями каталогу ссылок на торрент-файлы, которые содержат только списки хеш-сумм

[Профиль] [ЛС]
Показать сообщения:    
Ответить на тему

Текущее время: Сегодня 15:41

Часовой пояс: GMT + 4



Вы не можете начинать темы
Вы не можете отвечать на сообщения
Вы не можете редактировать свои сообщения
Вы не можете удалять свои сообщения
Вы не можете голосовать в опросах
Вы не можете прикреплять файлы к сообщениям
Вы не можете скачивать файлы