Решающая схватка / The Showdown / Swordbrothers / Hyultu (Пак Хун-чжун / Park Hoon-Jung) [2011, Южная Корея, боевик, драма, HDRip] VO + Original Kor Sub (rus, eng, ger)

Ответить на тему
 
Автор Сообщение

user ®

Стаж: 11 лет

Сообщений: 15151

Пост Пост: #1 от 31-Май-2014 21:40

[Цитировать]

Решающая схватка / The Showdown / Swordbrothers / Hyultu- -Страна: Южная Корея
Жанр: боевик, драма
Год выпуска: 2011
Продолжительность: 01:46:32-Перевод: Одноголосый закадровый [@PD]-Cубтитры: русские, английские, немецкие [отдельно]
Оригинальная аудиодорожка: корейский
Режиссер: Пак Хун-чжун / Park Hoon-Jung
В ролях: Пак Хи-сун, Чжин Гу, Ко Чан-сок, Ким Кап-су...
Описание: Китайская Маньчжурия, 1619 год. Шел 11-й год правления короля Чосона Гван Хе-гуна. После жестокого сражения, которое больше походило на кровавую бойню трое военных, генерал армии Чосона и его друг, командир подчиненного ему подразделения, а также один из рядовых солдат покинули поле битвы до конца боя, для того чтобы остаться в живых. По дороге домой всех трех застает жестокая пурга. И единственным спасением для них оказался постоялый двор, на котором останавливались купцы, торговавшие между Чосоном и Минь..
Релиз от -
Сэмпл: http://multi-up.com/977309
Качество видео: HDRip
Формат видео: AVI
Видео: MPEG-4 Visual at 2078 Кбит/сек; 720 x 304 (2.368) at 25.000 fps
Аудио: AC-3 at 384 Кбит/сек; 6 каналов, 48,0 КГц [VO]
Аудио: AC-3 at 448 Кбит/сек; 6 каналов, 48,0 КГц [Kor]
Автор:
MediaInfo
Общее
Полное имя : D:\Фильмы\Азиатские\Решающая схватка\The Showdown.2011.HDRip.XviD.2200MB. rip by [Assassin's Creed]\The Showdown.2011.HDRip.XviD.2200MB. rip by [Assassin's Creed].avi
Формат : AVI
Формат/Информация : Audio Video Interleave
Профиль формата : OpenDML
Размер файла : 2,18 Гбайт
Продолжительность : 1 ч. 46 м.
Общий поток : 2928 Кбит/сек
Программа кодирования : VirtualDubMod 1.5.10.2 (build 2540/release)
Библиотека кодирования : VirtualDubMod build 2540/release
Видео
Идентификатор : 0
Формат : MPEG-4 Visual
Профиль формата : Advanced Simple@L5
Параметр BVOP формата : 1
Параметр QPel формата : Нет
Параметр GMC формата : Без точки перехода
Параметр матрицы формата : Default (MPEG)
Идентификатор кодека : XVID
Идентификатор кодека/Подсказка : XviD
Продолжительность : 1 ч. 46 м.
Битрейт : 2078 Кбит/сек
Ширина : 720 пикселей
Высота : 304 пикселя
Соотношение сторон : 2,35:1
Частота кадров : 25,000 кадров/сек
Цветовое пространство : YUV
Субдискретизация насыщенности : 4:2:0
Битовая глубина : 8 бит
Тип развёртки : Прогрессивная
Метод сжатия : С потерями
Бит/(Пиксели*Кадры) : 0.380
Размер потока : 1,55 Гбайт (71%)
Библиотека кодирования : XviD 1.2.1 (UTC 2008-12-04)
Аудио #1
Идентификатор : 1
Формат : AC-3
Формат/Информация : Audio Coding 3
Расширение режима : CM (complete main)
Параметр Endianness формата : Big
Идентификатор кодека : 2000
Продолжительность : 1 ч. 46 м.
Вид битрейта : Постоянный
Битрейт : 384 Кбит/сек
Каналы : 6 каналов
Расположение каналов : Front: L C R, Side: L R, LFE
Частота : 48,0 КГц
Битовая глубина : 16 бит
Метод сжатия : С потерями
Размер потока : 293 Мбайт (13%)
Выравнивание : Разделение по промежуткам
Продолжительность промежутка : 40 мс. (1,00 видеокадр)
Время предзагрузки промежутка : 500 мс.
Аудио #2
Идентификатор : 2
Формат : AC-3
Формат/Информация : Audio Coding 3
Расширение режима : CM (complete main)
Параметр Endianness формата : Big
Идентификатор кодека : 2000
Продолжительность : 1 ч. 46 м.
Вид битрейта : Постоянный
Битрейт : 448 Кбит/сек
Каналы : 6 каналов
Расположение каналов : Front: L C R, Side: L R, LFE
Частота : 48,0 КГц
Битовая глубина : 16 бит
Метод сжатия : С потерями
Размер потока : 341 Мбайт (15%)
Выравнивание : Разделение по промежуткам
Продолжительность промежутка : 40 мс. (1,00 видеокадр)
Время предзагрузки промежутка : 500 мс.
Общее
Полное имя : D:\Фильмы\Азиатские\Решающая схватка\The Showdown.2011.HDRip.XviD.2200MB. rip by [Assassin's Creed]\The Showdown.Eng.srt
Формат : SubRip
Размер файла : 58,0 Кбайт
Текст
Формат : SubRip
Метод сжатия : Без потерь
Общее
Полное имя : D:\Фильмы\Азиатские\Решающая схватка\The Showdown.2011.HDRip.XviD.2200MB. rip by [Assassin's Creed]\The Showdown.Ger.srt
Формат : SubRip
Размер файла : 67,2 Кбайт
Текст
Формат : SubRip
Метод сжатия : Без потерь
Общее
Полное имя : D:\Фильмы\Азиатские\Решающая схватка\The Showdown.2011.HDRip.XviD.2200MB. rip by [Assassin's Creed]\The Showdown.Rus.srt
Формат : SubRip
Размер файла : 73,6 Кбайт
Текст
Формат : SubRip
Метод сжатия : Без потерь
Скриншот c названием фильма Скриншоты
Скачать

Скачать торрент! Решающая схватка / The Showdown / Swordbrothers / Hyultu (Пак Хун-чжун / Park Hoon-Jung) [2011, Южная Корея, боевик, драма, HDRip] VO + Original Kor Sub (rus, eng, ger)

Как скачивать? · Что такое торрент? · Рейтинг и ограничения

Сайт не распространяет и не хранит электронные версии произведений, а лишь предоставляет доступ к создаваемому пользователями каталогу ссылок на торрент-файлы, которые содержат только списки хеш-сумм

[Профиль] [ЛС]
Показать сообщения:    
Ответить на тему

Текущее время: Сегодня 22:27

Часовой пояс: GMT + 4



Вы не можете начинать темы
Вы не можете отвечать на сообщения
Вы не можете редактировать свои сообщения
Вы не можете удалять свои сообщения
Вы не можете голосовать в опросах
Вы не можете прикреплять файлы к сообщениям
Вы не можете скачивать файлы