Соседи. На тропе войны / Bad Neighbors (Николас Столлер / Nicholas Stoller) [2014, США / Good Universe, Point Grey Pictures, комедия, CamRip] Dub

Ответить на тему
 
Автор Сообщение

user ®

Стаж: 7 лет 7 месяцев

Сообщений: 20008

Пост Пост: #1 от 31-Май-2014 21:40

[Цитировать]

-Соседи. На тропе войны / Bad Neighbors- Страна: США
Жанр: Комедия
Год выпуска: 2014
Продолжительность: 01:30:54
Перевод: Профессиональный (дублированный)
Cубтитры: нет
Оригинальная аудиодорожка: нет
Режиссер: Николас Столлер / Nicholas Stoller
Студия: Good Universe, Point Grey Pictures
В ролях:
Сет Роген, Зак Эфрон, Роуз Бирн, Элиз Варгас, Зоя Варгас, Брайан Хаски, Айк Баринхолц, Карла Галло, Дэйв Франко, Хелстон Сейдж, Кристофер Минц-Плассе, Джеррод Кармайкл, Крэйг Робертс, Эли Кобрин, Кира Стернбах, Фахим Анвар, Ори Калмус, Стивен Майкл Эйх, Энди Сэмберг, Йорма Такконе, Блейк Андерсон, Лиза Кудроу, Наташа Леггеро, Кэйси Форд Александр, Мелани Авалон, Чести Бальестерос, Стася Хитт, Кристиан О’Брайэн, Рэйчел Энн Маллинз, Бриджетта Томарчио, Оля Воронкова, Чад Запфе
Описание:
Пара Келли и Mac с новорожденным ребенком переезжают в новый район жить и они надеются что там будет все тихо и спокойно.
Все так и было пока их соседями не становится братство из колледжа во главе с Тедди и его правой рукой Питом, в которых каждый вечер вечеринки, и которые отнюдь не живут тихо и спокойно. Вас ждут интересные и весьма забавные ссоры и споры спокойной тихой семьи и довольно шумными и активным братством.

Сэмпл: Скачать

Качество видео: CamRip
Формат видео: AVI
Видео: Xvid, 720x288, 29.971fps, 1927kbps
Аудио: MP3, 44100Hz, 2 channels, 128kbps

MediaInfo
General
Format : AVI
Format/Info : Audio Video Interleave
File size : 1.36 GiB
Duration : 1h 30mn
Overall bit rate : 2 149 Kbps
Writing application : VirtualDubMod 1.5.10.3 | www.virtualdub-fr.org || (build 2550/release)
Writing library : VirtualDubMod build 2550/release
Video
ID : 0
Format : MPEG-4 Visual
Codec ID : XVID
Codec ID/Hint : XviD
Duration : 1h 30mn
Bit rate : 1 927 Kbps
Width : 720 pixels
Height : 288 pixels
Display aspect ratio : 2.500
Frame rate : 29.970 fps
Color space : YUV
Chroma subsampling : 4:2:0
Compression mode : Lossy
Bits/(Pixel*Frame) : 0.310
Stream size : 1.22 GiB (90%)
Audio
ID : 1
Format : MPEG Audio
Codec ID : 55
Codec ID/Hint : MP3
Duration : 1h 30mn
Bit rate : 128 Kbps
Channel(s) : 2 channels
Sampling rate : 44.1 KHz
Compression mode : Lossy
Stream size : 83.2 MiB (6%)
Alignment : Aligned on interleaves
Screenshot movie title Screenshots
Скачать

Скачать торрент!

Как скачивать? · Что такое торрент? · Рейтинг и ограничения

Сайт не распространяет и не хранит электронные версии произведений, а лишь предоставляет доступ к создаваемому пользователями каталогу ссылок на торрент-файлы, которые содержат только списки хеш-сумм

[Профиль] [ЛС]
Показать сообщения:    
Ответить на тему

Текущее время: Сегодня 16:13

Часовой пояс: GMT + 4



Вы не можете начинать темы
Вы не можете отвечать на сообщения
Вы не можете редактировать свои сообщения
Вы не можете удалять свои сообщения
Вы не можете голосовать в опросах
Вы не можете прикреплять файлы к сообщениям
Вы не можете скачивать файлы