Воздушный маршал / Non-Stop (Хауме Кольет-Серра / Jaume Collet-Serra) [2014, Великобритания, Франция, США, детектив, триллер, боевик, BDRip-AVC] DUB + Subs (rus)

Ответить на тему
 
Автор Сообщение

user ®

Стаж: 7 лет 7 месяцев

Сообщений: 20008

Пост Пост: #1 от 31-Май-2014 21:40

[Цитировать]

Воздушный маршал | Non-Stop- Год выпуска: 2014
Страна: Великобритания, Франция, США
Жанр: детектив, триллер, боевик
Продолжительность: 01:46:37
Перевод:

  • Профессиональный (дублированный) Лицензия
    Субтитры: Russian (Форсированные на смс)-Режиссер: Хауме Кольет-Серра / Jaume Collet-Serra-В ролях: Лиам Нисон / Liam Neeson, Джулианна Мур / Julianne Moore, Скут МакНэйри / Scoot McNairy, Мишель Докери / Michelle Dockery, Нэйт Паркер / Nate Parker, Кори Столл / Corey Stoll, Лупита Нионго / Lupita Nyong'o, Омар Метуолли / Omar Metwally, Джейсон Батлер Харнер / Jason Butler Harner, Лайнас Роуч / Linus Roache, Ши Уигхэм / Shea Whigham, Энсон Маунт / Anson Mount, Куинн Маккоулган / Quinn McColgan ...-Описание: Межконтинентальный авиарейс. Билл Маркс, воздушный маршал, который обеспечивает безопасность пассажиров, получает сообщения с угрозами от маньяка-террориста. Преступник просчитал все ходы и подставил под обвинение самого спецагента. Теперь Маркс — цель спецслужб США. Ему остается одно: вычислить и обезвредить преступника, спасти пассажиров и свою любовь, которую он обретает на краю гибели. До взрыва остаются считанные минуты…-Kinopoisk | IMDB | Sample-Качество: BDRip-AVC | [Non-Stop.2014.1080p.Blu-ray.Remux.AVC.DTS-HD.MA.5.1-FreeHD]
    Формат: MKV
    Видео кодек: x264
    Аудио кодек: AC3
    Видео: 960х400 (2.40:1) | 23,976fps | 1765Kbps | Bits/(Pixel*Frame) : 0.192
    Аудио: AC3 | 2ch | 48kHz | 192kbps | RUS-

    MediaInfo / log x264
    logx264
x264 [info]: frame I:1879 Avg QP:16.36 size: 71227 PSNR Mean Y:46.43 U:48.09 V:48.29 Avg:46.90 Global:46.24
x264 [info]: frame P:31076 Avg QP:20.05 size: 18124 PSNR Mean Y:44.00 U:46.70 V:46.93 Avg:44.66 Global:43.66
x264 [info]: frame B:120429 Avg QP:21.64 size: 5929 PSNR Mean Y:43.16 U:46.26 V:46.30 Avg:43.89 Global:43.13
x264 [info]: consecutive B-frames: 2.6% 2.1% 5.7% 15.1% 15.1% 43.0% 7.2% 2.4% 2.3% 2.0% 2.6%
x264 [info]: mb I I16..4: 5.8% 75.0% 19.2%
x264 [info]: mb P I16..4: 0.7% 7.5% 1.2% P16..4: 30.1% 37.8% 13.6% 2.3% 0.2% skip: 6.7%
x264 [info]: mb B I16..4: 0.0% 0.8% 0.1% B16..8: 40.9% 20.0% 3.0% direct: 3.8% skip:31.4% L0:45.6% L1:46.8% BI: 7.5%
x264 [info]: 8x8 transform intra:79.6% inter:62.5%
x264 [info]: direct mvs spatial:98.4% temporal:1.6%
x264 [info]: coded y,uvDC,uvAC intra: 91.3% 91.9% 74.6% inter: 21.4% 21.8% 5.0%
x264 [info]: i16 v,h,dc,p: 19% 15% 5% 61%
x264 [info]: i8 v,h,dc,ddl,ddr,vr,hd,vl,hu: 8% 7% 5% 11% 16% 15% 15% 12% 12%
x264 [info]: i4 v,h,dc,ddl,ddr,vr,hd,vl,hu: 9% 7% 4% 10% 17% 15% 15% 11% 12%
x264 [info]: i8c dc,h,v,p: 45% 17% 16% 23%
x264 [info]: Weighted P-Frames: Y:4.0% UV:1.8%
x264 [info]: ref P L0: 50.8% 6.3% 17.7% 7.6% 5.5% 3.9% 3.1% 1.7% 1.3% 1.0% 0.8% 0.1% 0.0%
x264 [info]: ref B L0: 70.6% 14.4% 6.4% 3.1% 2.0% 1.5% 1.1% 0.6% 0.3% 0.1%
x264 [info]: ref B L1: 91.4% 8.6%
x264 [info]: SSIM Mean Y:0.9712701 (15.417db)
x264 [info]: PSNR Mean Y:43.373 U:46.375 V:46.454 Avg:44.080 Global:43.258
Video
ID : 1
Format : AVC
Format/Info : Advanced Video Codec
Format profile : High@L4.1
Format settings, CABAC : Yes
Format settings, ReFrames : 11 frames
Codec ID : V_MPEG4/ISO/AVC
Duration : 1h 46mn
Bit rate : 1 765 Kbps
Width : 960 pixels
Height : 400 pixels
Display aspect ratio : 2.40:1
Frame rate mode : Constant
Frame rate : 23.976 fps
Color space : YUV
Chroma subsampling : 4:2:0
Bit depth : 8 bits
Scan type : Progressive
Bits/(Pixel*Frame) : 0.192
Stream size : 1.29 GiB (88%)
Writing library : x264 core 142 r2431+42 c69a006 tMod [8-bit@all X86]
Encoding settings : cabac=1 / ref=11 / deblock=1:-2:-1 / analyse=0x3:0x133 / me=umh / subme=11 / psy=1 / fade_compensate=0.00 / psy_rd=1.00:0.00 / mixed_ref=1 / me_range=32 / chroma_me=1 / trellis=2 / 8x8dct=1 / cqm=0 / deadzone=21,11 / fast_pskip=0 / chroma_qp_offset=-2 / threads=6 / lookahead_threads=1 / sliced_threads=0 / nr=0 / decimate=1 / interlaced=0 / bluray_compat=0 / constrained_intra=0 / fgo=0 / bframes=10 / b_pyramid=2 / b_adapt=2 / b_bias=0 / direct=3 / weightb=1 / open_gop=0 / weightp=2 / keyint=240 / keyint_min=24 / scenecut=40 / intra_refresh=0 / rc_lookahead=40 / rc=2pass / mbtree=1 / bitrate=1765 / ratetol=1.0 / qcomp=0.60 / qpmin=0:0:0 / qpmax=69:69:69 / qpstep=4 / cplxblur=20.0 / qblur=0.5 / vbv_maxrate=50000 / vbv_bufsize=62500 / nal_hrd=none / filler=0 / ip_ratio=1.35 / aq=1:0.90 / aq-sensitivity=10.00 / aq-factor=1.00:1.00:1.00 / aq2=0 / aq3=0 / zones=146704,153380,q=40
Default : Yes
Forced : No
Matrix coefficients : BT.709
Audio
ID : 2
Format : AC-3
Format/Info : Audio Coding 3
Mode extension : CM (complete main)
Format settings, Endianness : Big
Codec ID : A_AC3
Duration : 1h 46mn
Bit rate mode : Constant
Bit rate : 192 Kbps
Channel count : 2 channels
Channel positions : Front: L R
Sampling rate : 48.0 KHz
Bit depth : 16 bits
Compression mode : Lossy
Stream size : 146 MiB (10%)
Title : DUB
Language : Russian
Default : Yes
Forced : No
Text
ID : 3
Format : UTF-8
Codec ID : S_TEXT/UTF8
Codec ID/Info : UTF-8 Plain Text
Title : Forced (SMS)
Language : Russian
Default : Yes
Forced : No
Menu
00:00:00.000 : en: 01
00:04:24.639 : en: 02
00:10:29.045 : en: 03
00:14:47.053 : en: 04
00:18:51.839 : en: 05
00:24:22.127 : en: 06
00:29:44.574 : en: 07
00:35:48.605 : en: 08
00:39:28.491 : en: 09
00:45:41.572 : en: 10
00:49:03.941 : en: 11
00:55:17.731 : en: 12
01:01:59.257 : en: 13
01:08:42.327 : en: 14
01:12:16.999 : en: 15
01:18:14.982 : en: 16
01:26:02.032 : en: 17
01:30:46.191 : en: 18
01:36:14.727 : en: 19
01:40:13.799 : en: 20

-
Скриншоты -
Скачать

Скачать торрент!

Как скачивать? · Что такое торрент? · Рейтинг и ограничения

Сайт не распространяет и не хранит электронные версии произведений, а лишь предоставляет доступ к создаваемому пользователями каталогу ссылок на торрент-файлы, которые содержат только списки хеш-сумм

[Профиль] [ЛС]
Показать сообщения:    
Ответить на тему

Текущее время: Сегодня 10:03

Часовой пояс: GMT + 4



Вы не можете начинать темы
Вы не можете отвечать на сообщения
Вы не можете редактировать свои сообщения
Вы не можете удалять свои сообщения
Вы не можете голосовать в опросах
Вы не можете прикреплять файлы к сообщениям
Вы не можете скачивать файлы