Безымянный гангстер: По законам времени / Nameless gangster: Rules of the time / War with crime: Hey Days Of Bastards / Bumchoiwaui (Юн Чон Бин / Yun Jong-bin) [2012, Южная Корея, криминал, HDRip] VO [den904]

Ответить на тему
 
Автор Сообщение

user ®

Стаж: 13 лет

Сообщений: 15071

Пост Пост: #1 от 31-Май-2014 13:20

[Цитировать]

Безымянный гангстер: По законам времени / Nameless gangster: Rules of the time / War with crime: Hey Days Of Bastards / Bumchoiwaui- -Страна: Южная Корея
Жанр: криминал
Год выпуска: 2012
Продолжительность: 02:13:49-Перевод: Одноголосый закадровый [den904]-Cубтитры: нет
Оригинальная аудиодорожка: нет
Режиссер: Юн Чон Бин / Yun Jong-bin
В ролях: Ха Чон У, Чхве Мин Сик, Ма Дон Сок, Чо Чин Ун, Гвак До Вон, Ким Сын Гён...
Описание: Когда Чхве Ик Хена уже намереваются уволить за все его махинации на таможне с отгрузками и транспортировкой метамфитамина его жизнь принимает крутой поворот. Узнав о махинациях Чхве Ик Хена, местный глава города предлагает ему общий бизнес в обмен на сохранение должности и немалых денег. Начав переговоры Чхве Ик Хен и Чхве Хён Пэ выясняют, что они дальние родственники, что еще больше их сближает.
Релиз от -
Сэмпл: http://multi-up.com/977206
Качество видео: HDRip [исх. BDRip 720p]
Формат видео: AVI
Видео: MPEG-4 Visual at 1433 Кбит/сек; 688 x 368 (1.870) at 23.976 fps
Аудио: MPEG Audio at 128 Кбит/сек; 2 канала, 48,0 КГц
Автор:
MediaInfo
Общее
Полное имя : D:\Фильмы\Азиатские\Безымянный гангстер\Nameless Gangster.2012.HDRip.XviD.1400MB. rip by [Assassin's Creed].avi
Формат : AVI
Формат/Информация : Audio Video Interleave
Размер файла : 1,47 Гбайт
Продолжительность : 2 ч. 13 м.
Общий поток : 1570 Кбит/сек
Программа кодирования : VirtualDubMod 1.5.10.3 | www.virtualdub-fr.org || (build 2550/release)
Библиотека кодирования : VirtualDubMod build 2550/release
Видео
Идентификатор : 0
Формат : MPEG-4 Visual
Профиль формата : Advanced Simple@L5
Параметр BVOP формата : 1
Параметр QPel формата : Нет
Параметр GMC формата : Без точки перехода
Параметр матрицы формата : Default (MPEG)
Идентификатор кодека : XVID
Идентификатор кодека/Подсказка : XviD
Продолжительность : 2 ч. 13 м.
Битрейт : 1433 Кбит/сек
Ширина : 688 пикселей
Высота : 368 пикселей
Соотношение сторон : 1,85:1
Частота кадров : 23,976 кадра/сек
Цветовое пространство : YUV
Субдискретизация насыщенности : 4:2:0
Битовая глубина : 8 бит
Тип развёртки : Прогрессивная
Метод сжатия : С потерями
Бит/(Пиксели*Кадры) : 0.236
Размер потока : 1,34 Гбайт (91%)
Библиотека кодирования : XviD 1.2.1 (UTC 2008-12-04)
Аудио
Идентификатор : 1
Формат : MPEG Audio
Версия формата : Version 1
Профиль формата : Layer 3
Идентификатор кодека : 55
Идентификатор кодека/Подсказка : MP3
Продолжительность : 2 ч. 13 м.
Вид битрейта : Постоянный
Битрейт : 128 Кбит/сек
Каналы : 2 канала
Частота : 48,0 КГц
Метод сжатия : С потерями
Размер потока : 123 Мбайт (8%)
Выравнивание : Соединение по промежуткам
Продолжительность промежутка : 42 мс. (1,00 видеокадр)
Время предзагрузки промежутка : 504 мс.
Библиотека кодирования : LAME3.99r
Настройки программы : -m s -V 4 -q 2 -lowpass 17 -b 128
Скриншот c названием фильма Скриншоты
Скачать

Скачать торрент! Безымянный гангстер: По законам времени / Nameless gangster: Rules of the time / War with crime: Hey Days Of Bastards / Bumchoiwaui (Юн Чон Бин / Yun Jong-bin) [2012, Южная Корея, криминал, HDRip] VO [den904]

Как скачивать? · Что такое торрент? · Рейтинг и ограничения

Сайт не распространяет и не хранит электронные версии произведений, а лишь предоставляет доступ к создаваемому пользователями каталогу ссылок на торрент-файлы, которые содержат только списки хеш-сумм

[Профиль] [ЛС]
Показать сообщения:    
Ответить на тему

Текущее время: Сегодня 20:28

Часовой пояс: GMT + 4



Вы не можете начинать темы
Вы не можете отвечать на сообщения
Вы не можете редактировать свои сообщения
Вы не можете удалять свои сообщения
Вы не можете голосовать в опросах
Вы не можете прикреплять файлы к сообщениям
Вы не можете скачивать файлы