Парень из Чайна-тауна / Парень из Китайского квартала / Chinatown Kid / Tang ren jie xiao zi (Чанг Че / Chang Cheh) [1978, Гонконг, кунг-фу - карате, VHSRip] AVO (Дольский)

Ответить на тему
 
Автор Сообщение

user ®

Стаж: 13 лет

Сообщений: 15071

Пост Пост: #1 от 31-Май-2014 13:20

[Цитировать]

Парень из Чайна-тауна / Парень из Китайского квартала / Chinatown Kid / Tang ren jie xiao zi
Страна: Гонконг
Жанр: кунг-фу - карате
Год выпуска: 1978
Продолжительность: 01:28:14
Перевод: Авторский (одноголосый закадровый) Дольский
Cубтитры: нет
Режиссер: Чанг Че / Chang Cheh
В ролях: Фу Шен, Ширли Ю, Шоу Инь-Инь, Куо Чуи, Дженни
Описание: от alenavova
Молодой парень вернулся после армейской службы в свой родной Гонконг. Сентиментальный дедушка, воспитывавший его, не мог нарадоваться на внука. А тот попытался найти себе место в нормальной жизни большого города. Но не пришелся по душе местным воротилам мафиозного бизненса, которые не сумев укротить молодого человека, крепко избили дедушку. Внучек обиделся на мафию, но отомстить за старика не смог: руки оказались коротки, несмотря на высокое мастерство владения искусством каратэ. И тогда, следуя совету мудрых людей, герой отправляется в Америку, чтобы начать новую жизнь. Впрочем, ресторанчик в Китайском квартале и мирная работа официантом не спасли молодого человека от вездесущей мафии - правда не гонконгского, а американского происхождения... Много-много драк, однако и за развитием криминального сюжета надо следить внимательно, поскольку он довольно-таки запутан.
Доп. информация: Оцифровка VHS (личный архив) и получение VHSRip alenavova
Сэмпл: http://yadi.sk/d/sSg5dz5HRmHVC
Качество видео: VHSRip
Формат видео: AVI
Видео: 640x480 (1.33:1), 25 fps, XviD build 50 ~2049 kbps avg, 0.27 bit/pixel
Аудио: 48 kHz, AC3 Dolby Digital, 2/0 (L,R) ch, ~192 kbps
MediaInfo
Парень из Чайна-тауна - Chinatown Kid [by alenavova].avi
Format : AVI
Format/Info : Audio Video Interleave
File size : 1.39 GiB
Duration : 1h 28mn
Overall bit rate : 2 252 Kbps
Movie name : Парень из Чайна-тауна - Chinatown Kid [by alenavova]
Director : Rip by alenavova
Writing application : VirtualDubMod 1.5.10.3 | www.virtualdub-fr.org || (build 2550/release)
Copyright : Edich2
Comment :
Video
ID : 0
Format : MPEG-4 Visual
Format profile : Advanced Simple@L5
Format settings, BVOP : 2
Format settings, QPel : No
Format settings, GMC : No warppoints
Format settings, Matrix : Custom
Codec ID : XVID
Codec ID/Hint : XviD
Duration : 1h 28mn
Bit rate : 2 050 Kbps
Width : 640 pixels
Height : 480 pixels
Display aspect ratio : 4:3
Frame rate : 25.000 fps
Color space : YUV
Chroma subsampling : 4:2:0
Bit depth : 8 bits
Scan type : Progressive
Compression mode : Lossy
Bits/(Pixel*Frame) : 0.267
Stream size : 1.26 GiB (91%)
Writing library : XviD 1.2.1 (UTC 2008-12-04)
Audio
ID : 1
Format : AC-3
Format/Info : Audio Coding 3
Mode extension : CM (complete main)
Format settings, Endianness : Big
Codec ID : 2000
Duration : 1h 28mn
Bit rate mode : Constant
Bit rate : 192 Kbps
Channel(s) : 2 channels
Channel positions : Front: L R
Sampling rate : 48.0 KHz
Bit depth : 16 bits
Compression mode : Lossy
Stream size : 121 MiB (9%)
Alignment : Split accross interleaves
Interleave, duration : 40 ms (1.00 video frame)
Interleave, preload duration : 500 ms
Скриншоты
Скачать

Скачать торрент! Парень из Чайна-тауна / Парень из Китайского квартала / Chinatown Kid / Tang ren jie xiao zi (Чанг Че / Chang Cheh) [1978, Гонконг, кунг-фу - карате, VHSRip] AVO (Дольский)

Как скачивать? · Что такое торрент? · Рейтинг и ограничения

Сайт не распространяет и не хранит электронные версии произведений, а лишь предоставляет доступ к создаваемому пользователями каталогу ссылок на торрент-файлы, которые содержат только списки хеш-сумм

[Профиль] [ЛС]
Показать сообщения:    
Ответить на тему

Текущее время: Сегодня 17:59

Часовой пояс: GMT + 4



Вы не можете начинать темы
Вы не можете отвечать на сообщения
Вы не можете редактировать свои сообщения
Вы не можете удалять свои сообщения
Вы не можете голосовать в опросах
Вы не можете прикреплять файлы к сообщениям
Вы не можете скачивать файлы