Академия вампиров / Vampire Academy (Марк Уотерс / Mark Waters) [2014, США, ужасы, фэнтези, боевик, BDRip] Dub + Original (eng) + Sub (rus, eng)

Ответить на тему
 
Автор Сообщение

user ®

Стаж: 7 лет 7 месяцев

Сообщений: 20008

Пост Пост: #1 от 31-Май-2014 13:20

[Цитировать]

Академия вампиров / Vampire Academy«Blood is family. Blood is pain. And blood is death»- Год выхода: 2014
Жанр: ужасы, фэнтези, боевик, комедия, детектив
Страна: США / Angry Films, Kintop Pictures, Preger Entertainment
Продолжительность: 01:44:22
Перевод: Профессиональный (полное дублирование) LINE
Оригинальная аудиодорожка: английская
Субтитры: русские (полные - notabenoid), английские (SDH) |*srt|-Режиссер: Марк Уотерс / Mark Waters-В ролях: Зои Дойч, Люси Фрай, Данила Козловский, Доминик Шервуд, Сара Хайланд, Гэбриел Бирн, Сами Гэйл, Ольга Куриленко, Джоэли Ричардсон, Камерон Монахэн, Эшли Чарльз, Клер Фой, Доминик Типпер, Эдвард Холкрофт, Бронте Норман-Террелл, Крис Мэйсон, Бен Пил, Бен Пил, Рамон Тикарам, Гарри Брэдшоу, Шелли Лонгуорт-Описание: Мало кому известно, что в Америке, в самом сердце Монтаны, имеется настоящая Академия, где вампиры обучаются высокому искусству магии. И почти никто не знает, что в мире идут кровавые вампирские войны и расе мороев противостоит жестокое племя стригоев, вампиров, переступивших черту закона и не гнушающихся убийством. Даже стены Академии, святая святых науки, не слишком надежная защита от происков темных сил. Юная моройская принцесса Лисса и Роза, ее подруга и верный страж, однажды убеждаются в этом, оказавшись в эпицентре грозных событий.- -Сэмпл: http://multi-up.com/977195-Качество: BDRip [BDRemux / 1080p / кинозал]
Формат: AVI
Видео: 720x304 (2.37:1), 23.976 fps, XviD build 73 ~1541 kbps avg, 0.29 bit/pixel
Аудио 1: 48 kHz, AC3 Dolby Digital, 2/0 (L,R) ch, ~224.00 kbps avg |DUB|
Аудио 2: 48 kHz, AC3 Dolby Digital, 2/0 (L,R) ch, ~224.00 kbps avg |ENG|
-Media Info
Формат                                   : AVI
Формат/Информация                        : Audio Video Interleave
Размер файла                             : 1,46 Гбайт
Продолжительность                        : 1 ч. 44 м.
Общий поток                              : 2004 Кбит/сек
Программа кодирования                    : VirtualDubMod 1.5.10.3 | www.virtualdub-fr.org || (build 2550/release)
Библиотека кодирования                   : VirtualDubMod build 2550/release
Видео
Идентификатор                            : 0
Формат                                   : MPEG-4 Visual
Профиль формата                          : Advanced Simple@L5
Параметр BVOP формата                    : 1
Параметр QPel формата                    : Нет
Параметр GMC формата                     : Без точки перехода
Параметр матрицы формата                 : Выборочная
Идентификатор кодека                     : XVID
Идентификатор кодека/Подсказка           : XviD
Продолжительность                        : 1 ч. 44 м.
Битрейт                                  : 1542 Кбит/сек
Ширина                                   : 720 пикселей
Высота                                   : 304 пикселя
Соотношение сторон                       : 2,35:1
Частота кадров                           : 23,976 кадра/сек
Цветовое пространство                    : YUV
Субдискретизация насыщенности            : 4:2:0
Битовая глубина                          : 8 бит
Тип развёртки                            : Прогрессивная
Метод сжатия                             : С потерями
Бит/(Пиксели*Кадры)                      : 0.294
Размер потока                            : 1,12 Гбайт (77%)
Библиотека кодирования                   : XviD 73
Аудио #1
Идентификатор                            : 1
Формат                                   : AC-3
Формат/Информация                        : Audio Coding 3
Расширение режима                        : CM (complete main)
Параметр Endianness формата              : Big
Идентификатор кодека                     : 2000
Продолжительность                        : 1 ч. 44 м.
Вид битрейта                             : Постоянный
Битрейт                                  : 224 Кбит/сек
Каналы                                   : 2 канала
Расположение каналов                     : Front: L R
Частота                                  : 48,0 КГц
Битовая глубина                          : 16 бит
Метод сжатия                             : С потерями
Размер потока                            : 167 Мбайт (11%)
Выравнивание                             : Разделение по промежуткам
Продолжительность промежутка             : 42  мс. (1,00 видеокадр)
Время предзагрузки промежутка            : 500  мс.
Аудио #2
Идентификатор                            : 2
Формат                                   : AC-3
Формат/Информация                        : Audio Coding 3
Расширение режима                        : CM (complete main)
Параметр Endianness формата              : Big
Идентификатор кодека                     : 2000
Продолжительность                        : 1 ч. 44 м.
Вид битрейта                             : Постоянный
Битрейт                                  : 224 Кбит/сек
Каналы                                   : 2 канала
Расположение каналов                     : Front: L R
Частота                                  : 48,0 КГц
Битовая глубина                          : 16 бит
Метод сжатия                             : С потерями
Размер потока                            : 167 Мбайт (11%)
Выравнивание                             : Разделение по промежуткам
Продолжительность промежутка             : 42  мс. (1,00 видеокадр)
Время предзагрузки промежутка            : 500  мс.
Скриншоты Сравнение
[url=http://***/forum/viewtopic.php?t=4751413]http://***/forum/viewtopic.php?t=4751413[/url]
http://screenshotcomparison.com/comparison/76985
Скачать

Скачать торрент!

Как скачивать? · Что такое торрент? · Рейтинг и ограничения

Сайт не распространяет и не хранит электронные версии произведений, а лишь предоставляет доступ к создаваемому пользователями каталогу ссылок на торрент-файлы, которые содержат только списки хеш-сумм

[Профиль] [ЛС]
Показать сообщения:    
Ответить на тему

Текущее время: Сегодня 00:39

Часовой пояс: GMT + 4



Вы не можете начинать темы
Вы не можете отвечать на сообщения
Вы не можете редактировать свои сообщения
Вы не можете удалять свои сообщения
Вы не можете голосовать в опросах
Вы не можете прикреплять файлы к сообщениям
Вы не можете скачивать файлы