Ковбойши и ангелы 2 / Лето Дакоты / Cowgirls N\' Angels 2 Dakota\'s Summer (Тимоти Армстронг / Timothy Armstrong) [2014, США, Семейный, мелодрама, HDRip] VO (datynet) + Original Eng

Ответить на тему
 
Автор Сообщение

user ®

Стаж: 7 лет 7 месяцев

Сообщений: 20008

Пост Пост: #1 от 31-Май-2014 13:20

[Цитировать]

Ковбойши и ангелы 2 / Лето Дакоты / Cowgirls N' Angels 2 Dakota's Summer
Страна: США
Жанр: Семейный, мелодрама
Год выпуска: 2014
Продолжительность: 01:30:32
Перевод: Одноголосый закадровый datynet по Субтитрам (М. Васильев aka lakdhf)
Cубтитры: нет
Оригинальная аудиодорожка: английский
Режиссер: Тимоти Армстронг / Timothy Armstrong
В ролях: Хейли Рэмм, Брайан Дечарт, Глинн Тёрмен, Эмили Бетт Рикардс, Уолт Робертс, Кимберли Уэйлен, Эмбер Даун Лэндрум, Лесли-Энн Хафф, Деррик Стриклэнд
Описание: Дакота Роуз – представительница славного рода ковбоев. Правда, пока у нее хорошо получается только падать с лошади. А ее ровесницы уже показывают сложнейшие акробатические фигуры! И тут выясняется, что родители все эти годы скрывали от Дакоты ужасную правду: они взяли ее из детдома!Теперь у Дакоты две большие задачи: собрать по кусочкам свою жизнь и найти настоящих родителей.
Сэмпл: http://multi-up.com/977222
Качество видео: HDRip
Формат видео: AVI
Видео: 720x384 (1.88:1), 23.976 fps, XviD MPEG-4 ~1612 kbps avg, 0.24 bit/pixel
Аудио: 44.100 kHz, MPEG Layer 3, 2 ch, ~160.00 kbps avg Rus
Аудио 2: 48 kHz, AC3 Dolby Digital, 3/2 (L,C,R,l,r) + LFE ch, ~384 kbps Eng
MediaInfo
General
Complete name : D:\Dakotas.Summer.HDRip.2014.avi
Format : AVI
Format/Info : Audio Video Interleave
Format profile : OpenDML
File size : 1.37 GiB
Duration : 1h 30mn
Overall bit rate : 2 163 Kbps
Writing application : Lavf55.37.100
Video
ID : 0
Format : MPEG-4 Visual
Format profile : Advanced Simple@L5
Format settings, BVOP : Yes
Format settings, QPel : No
Format settings, GMC : No warppoints
Format settings, Matrix : Default (H.263)
Codec ID : XVID
Codec ID/Hint : XviD
Duration : 1h 30mn
Bit rate : 1 598 Kbps
Width : 720 pixels
Height : 384 pixels
Display aspect ratio : 1.85:1
Frame rate : 23.976 fps
Color space : YUV
Chroma subsampling : 4:2:0
Bit depth : 8 bits
Scan type : Progressive
Compression mode : Lossy
Bits/(Pixel*Frame) : 0.241
Stream size : 1.01 GiB (74%)
Writing library : XviD 64
Audio #1
ID : 1
Format : MPEG Audio
Format version : Version 1
Format profile : Layer 3
Codec ID : 55
Codec ID/Hint : MP3
Duration : 1h 30mn
Bit rate mode : Constant
Bit rate : 160 Kbps
Channel count : 2 channels
Sampling rate : 44.1 KHz
Compression mode : Lossy
Stream size : 104 MiB (7%)
Alignment : Aligned on interleaves
Interleave, duration : 26 ms (0.63 video frame)
Interleave, preload duration : 26 ms
Audio #2
ID : 2
Format : AC-3
Format/Info : Audio Coding 3
Mode extension : CM (complete main)
Format settings, Endianness : Big
Codec ID : 2000
Duration : 1h 30mn
Bit rate mode : Constant
Bit rate : 384 Kbps
Channel count : 6 channels
Channel positions : Front: L C R, Side: L R, LFE
Sampling rate : 48.0 KHz
Bit depth : 16 bits
Compression mode : Lossy
Stream size : 249 MiB (18%)
Alignment : Aligned on interleaves
Interleave, duration : 32 ms (0.77 video frame)
Скриншот c названием фильма Скриншоты
Скачать

Скачать торрент!

Как скачивать? · Что такое торрент? · Рейтинг и ограничения

Сайт не распространяет и не хранит электронные версии произведений, а лишь предоставляет доступ к создаваемому пользователями каталогу ссылок на торрент-файлы, которые содержат только списки хеш-сумм

[Профиль] [ЛС]
Показать сообщения:    
Ответить на тему

Текущее время: Сегодня 12:51

Часовой пояс: GMT + 4



Вы не можете начинать темы
Вы не можете отвечать на сообщения
Вы не можете редактировать свои сообщения
Вы не можете удалять свои сообщения
Вы не можете голосовать в опросах
Вы не можете прикреплять файлы к сообщениям
Вы не можете скачивать файлы