Устрашение невинных / Haunting of the innocent (Мэттью Хиш / Matt Hish) [2014, США, Мистическая драма, DVDRip] VO (Ващенко)

Ответить на тему
 
Автор Сообщение

user ®

Стаж: 7 лет 7 месяцев

Сообщений: 20008

Пост Пост: #1 от 30-Май-2014 19:55

[Цитировать]

Устрашение невинных / Haunting of the innocent
Страна: США
Жанр: Мистическая драма
Год выпуска: 2014
Продолжительность: 01:40:43
Перевод: Одноголосый закадровый
Cубтитры: нет
Режиссер: Мэттью Хиш / Matt Hish
В ролях: Джадд Нельсон, Джессика Моррис, Райб Хиллс, Мария Боннер, Ханна Коули
Описание: Том и Бренда наслаждаются жизнью: хорошая работа, дом в престижном районе. Идиллия рушится, когда Бренда становится жертвой насильника. После этого, у несчастной женщины начинается депрессия, она отдаляется от мужа. Чтобы спасти свою семью, они решают переехать из города в маленькую деревушку, поближе в природе. Разумеется, они и знать не могли, что над этой деревней уже много столетий давлеет проклятье, наложенное злобной ведьмой...
Доп. информация: Авторы фильма вдохновлялись мотивами скандинавской мифологии.
Премьера: 1 февраля 2014 (Фестиваль Hollywood Horror Fest, Лос Анджелес, Калифорния, США)
Над релизом трудились:
перевод: Михаил Васильев (lakdhf)
текст читал: Семен Ващенко
Релиз группа

Сэмпл: http://yadi.sk/d/Rme03nRxRgzDS
Качество видео: DVDRip
Формат видео: AVI
Видео: 847 Kbps, 656x352 (1.85:1)23 976 fps, MPEG 4 XviD
Аудио: 128 Kbps, 48 KHz, 2 ch, MPEG Audio MP 3
MediaInfo
General
Complete name : C:\Users\Владелец\Desktop\Haunting.of.the.Innocent.2014.DVDRiP.VO.Semyon.Vashchenko.avi
Format : AVI
Format/Info : Audio Video Interleave
File size : 709 MiB
Duration : 1h 40mn
Overall bit rate : 985 Kbps
Video
ID : 0
Format : MPEG-4 Visual
Format profile : Advanced Simple@L5
Format settings, BVOP : 2
Format settings, QPel : No
Format settings, GMC : No warppoints
Format settings, Matrix : Default (H.263)
Codec ID : XVID
Codec ID/Hint : XviD
Duration : 1h 40mn
Bit rate : 847 Kbps
Width : 656 pixels
Height : 352 pixels
Display aspect ratio : 1.85:1
Frame rate : 23.976 fps
Color space : YUV
Chroma subsampling : 4:2:0
Bit depth : 8 bits
Scan type : Progressive
Compression mode : Lossy
Bits/(Pixel*Frame) : 0.153
Stream size : 610 MiB (86%)
Writing library : XviD 65
Audio
ID : 1
Format : MPEG Audio
Format version : Version 1
Format profile : Layer 3
Codec ID : 55
Codec ID/Hint : MP3
Duration : 1h 40mn
Bit rate mode : Constant
Bit rate : 128 Kbps
Channel(s) : 2 channels
Sampling rate : 48.0 KHz
Compression mode : Lossy
Stream size : 92.2 MiB (13%)
Alignment : Split accross interleaves
Interleave, duration : 42 ms (1.00 video frame)
Interleave, preload duration : 500 ms
Скриншот c названием фильма Скриншоты
Скачать

Скачать торрент!

Как скачивать? · Что такое торрент? · Рейтинг и ограничения

Сайт не распространяет и не хранит электронные версии произведений, а лишь предоставляет доступ к создаваемому пользователями каталогу ссылок на торрент-файлы, которые содержат только списки хеш-сумм

[Профиль] [ЛС]
Показать сообщения:    
Ответить на тему

Текущее время: Сегодня 20:08

Часовой пояс: GMT + 4



Вы не можете начинать темы
Вы не можете отвечать на сообщения
Вы не можете редактировать свои сообщения
Вы не можете удалять свои сообщения
Вы не можете голосовать в опросах
Вы не можете прикреплять файлы к сообщениям
Вы не можете скачивать файлы