Плохая компания / Bad Company (Джоэл Шумахер / Joel Schumacher) [2002, США, Чехия, боевик, триллер, комедия, приключения, HDTV 1080i] MVO (1 канал)

Ответить на тему
 
Автор Сообщение

user ®

Стаж: 7 лет 7 месяцев

Сообщений: 20008

Пост Пост: #1 от 30-Май-2014 11:50

[Цитировать]

Плохая компания / Bad Company
Страна: США, Чехия
Жанр: боевик, триллер, комедия, приключения
Год выпуска: 2002
Продолжительность: 01:48:20
Перевод: Профессиональный (многоголосый закадровый) 1 канал
Cубтитры: нет
Оригинальная аудиодорожка: нет
Режиссер: Джоэл Шумахер / Joel Schumacher
В ролях: Крис Рок, Энтони Хопкинс, Керри Вашигтон, Брук Смит, Гарселл Бьювайс, Ших Уигхэм, Майкл Или, Петер Стормаре, Гэбриел Махт, Адони Маропис, Гарсель Бове, Драган Мичанович, Джон Слэттери, Брук Смит, Дэниэл Санжата, ДеВоун Лоусон мл., Марек Вашут, Питер Макдисси, Ирма П. Холл, Петр Якл, Дэн Зиски, Джон Эйлуорд, Джон Финк, Дебора Раш, Ян Немейовски, Винтер Б. Уларик, Майкл Или, Джанет Рэкуэл
Описание: Когда во время очередного задания погибает агент ЦРУ, агентство решает заменить его братом-близнецом и закончить сверхсекретную операцию, над которой работал погибший. Однако замену трудно назвать адекватной. На место опытного агента, выпускника Гарварда, пришлось поставить ничего не подозревающего уличного прощелыгу.
Чтобы окончательно не провалить дело, руководство приставляет к новобранцу одного из своих лучших агентов. Сладкая парочка приступает к теперь уже вдвойне рискованной операции…
Доп. информация: HDTV имеет большее наполнение кадра, чем WEB-DL и DVD http://screenshotcomparison.com/comparison/76627
Сэмпл: http://yadi.sk/d/S-U2n3XNRZbVn
Качество видео: HDTV 1080i
Формат видео: TS
Видео: AVC, 1920x1080 (16/9), 25.000 fps, 11.4 Mbps (0.220 bit/pixel)
Аудио: MP2, 48.0 KHz, 2 ch, 192 Kbps, CBR (Russian)
MediaInfo
Общее
Идентификатор : 3 (0x3)
Полное имя : K:\Плохая компания.ts
Формат : MPEG-TS
Размер файла : 9,42 Гбайт
Продолжительность : 1 ч. 48 м.
Режим общего битрейта : Переменный
Общий поток : 12,4 Мбит/сек
Видео
Идентификатор : 2141 (0x85D)
Идентификатор меню : 21004 (0x520C)
Формат : AVC
Формат/Информация : Advanced Video Codec
Профиль формата : Main@L4.0
Параметр CABAC формата : Да
Параметр ReFrames формата : 3 кадра
Идентификатор кодека : 27
Продолжительность : 1 ч. 48 м.
Битрейт : 11,6 Мбит/сек
Ширина : 1920 пикселей
Высота : 1080 пикселей
Соотношение сторон : 16:9
Частота кадров : 25,000 кадров/сек
Стандарт вещания : Component
Цветовое пространство : YUV
Субдискретизация насыщенности : 4:2:0
Битовая глубина : 8 бит
Тип развёртки : Чересстрочная
Порядок развёртки : Верхнее поле первое
Бит/(Пиксели*Кадры) : 0.224
Размер потока : 8,81 Гбайт (94%)
Основные цвета : BT.709
Характеристики трансфера : BT.709
Коэффициенты матрицы : BT.709
Аудио
Идентификатор : 2142 (0x85E)
Идентификатор меню : 21004 (0x520C)
Формат : MPEG Audio
Версия формата : Version 1
Профиль формата : Layer 2
Идентификатор кодека : 4
Продолжительность : 1 ч. 48 м.
Вид битрейта : Постоянный
Битрейт : 192 Кбит/сек
Каналы : 2 канала
Частота : 48,0 КГц
Метод сжатия : С потерями
Задержка видео : -2 мс.
Размер потока : 149 Мбайт (2%)
Язык : Russian
Скриншоты
Скачать

Скачать торрент!

Как скачивать? · Что такое торрент? · Рейтинг и ограничения

Сайт не распространяет и не хранит электронные версии произведений, а лишь предоставляет доступ к создаваемому пользователями каталогу ссылок на торрент-файлы, которые содержат только списки хеш-сумм

[Профиль] [ЛС]
Показать сообщения:    
Ответить на тему

Текущее время: Сегодня 20:06

Часовой пояс: GMT + 4



Вы не можете начинать темы
Вы не можете отвечать на сообщения
Вы не можете редактировать свои сообщения
Вы не можете удалять свои сообщения
Вы не можете голосовать в опросах
Вы не можете прикреплять файлы к сообщениям
Вы не можете скачивать файлы