Планкетт и Маклейн / Plunkett & Macleane (Джэйк Скотт / Jake Scott) [1999, Великобритания, приключения, драма, HDTV 1080i] MVO (1 канал)

Ответить на тему
 
Автор Сообщение

user ®

Стаж: 7 лет 7 месяцев

Сообщений: 20008

Пост Пост: #1 от 30-Май-2014 11:50

[Цитировать]

Планкетт и Маклейн / Plunkett & MacLeane
Страна: Великобритания
Жанр: приключения, драма
Год выпуска: 1999
Продолжительность: 01:34:19
Перевод: Профессиональный (многоголосый закадровый) 1 канал
Cубтитры: нет
Оригинальная аудиодорожка: нет
Режиссер: Джэйк Скотт / Jake Scott
В ролях: Лив Тайлер, Джонни Ли Миллер, Айэйн Робертсон, Роберт Карлайл, Кен Стотт, Томми Фланаган, Джеймс Торнтон, Теренс Ригби, Кристиан Камарго, Нив МакИнтош, Мэтт Лукас, Дэвид Уоллиямс, Александр Армстронг, Ян Кузелка, Владимир Яворски, Алан Камминг, Майкл Гэмбон, Карел Добры, Николас Фаррелл, Гордон Ловитт, Клер Рашбрук, Тим МакМаллан, Карел Полисенский, Джефф Наттолл, Мартин Серен, Дин Кук, Аннабел Брукс, Тони Модсли, Алекс Палмер, Сьюзан Порретт, Никола МакОлифф, Анна Кивени, Жак Мату, Майкл Калкин, Мюррэй Лэклэн Янг, Дейв Аткинз
Описание: События фильма разворачиваются в Англии середины XVIII века. Уилл Планкетт — обыкновенный бездельник-простолюдин, променявший профессию аптекаря на романтику большой дороги. Джеймс Маклейн — бывший аристократ, погрязший в долгах и потому вынужденный круто изменить свою жизнь. Вместе Планкетт и Маклейн — неуловимые и никем не превзойденные разбойники, осуществляющие самые невероятные авантюры и ограбления. Единственная драгоценность, которая может оказаться не по зубам беспечным «рыцарям ножа и пистолета», — красавица Ребекка, дочь главного королевского прокурора...
Доп. информация: HDTV и DVD имеют разное наполнение кадра http://screenshotcomparison.com/comparison/76624
Сэмпл: http://yadi.sk/d/FnIOTEdzRZbVc
Качество видео: HDTV 1080i
Формат видео: ts
Видео: AVC, 1920x1080 (16/9), 25.000 fps, 10.1 Mbps (0.195 bit/pixel)
Аудио: MP2, 48.0 KHz, 2 ch, 192 Kbps, CBR (Russian)
MediaInfo
Общее
Идентификатор : 3 (0x3)
Полное имя : K:\Планкетт и Маклейн.ts
Формат : MPEG-TS
Размер файла : 7,30 Гбайт
Продолжительность : 1 ч. 34 м.
Режим общего битрейта : Переменный
Общий поток : 11,1 Мбит/сек
Видео
Идентификатор : 2141 (0x85D)
Идентификатор меню : 21004 (0x520C)
Формат : AVC
Формат/Информация : Advanced Video Codec
Профиль формата : Main@L4.0
Параметр CABAC формата : Да
Параметр ReFrames формата : 3 кадра
Параметр GOP формата : M=4, N=28
Идентификатор кодека : 27
Продолжительность : 1 ч. 34 м.
Битрейт : 10,3 Мбит/сек
Ширина : 1920 пикселей
Высота : 1080 пикселей
Соотношение сторон : 16:9
Частота кадров : 25,000 кадров/сек
Стандарт вещания : Component
Цветовое пространство : YUV
Субдискретизация насыщенности : 4:2:0
Битовая глубина : 8 бит
Тип развёртки : Чересстрочная
Порядок развёртки : Верхнее поле первое
Бит/(Пиксели*Кадры) : 0.199
Размер потока : 6,81 Гбайт (93%)
Основные цвета : BT.709
Характеристики трансфера : BT.709
Коэффициенты матрицы : BT.709
Аудио
Идентификатор : 2142 (0x85E)
Идентификатор меню : 21004 (0x520C)
Формат : MPEG Audio
Версия формата : Version 1
Профиль формата : Layer 2
Идентификатор кодека : 4
Продолжительность : 1 ч. 34 м.
Вид битрейта : Постоянный
Битрейт : 192 Кбит/сек
Каналы : 2 канала
Частота : 48,0 КГц
Метод сжатия : С потерями
Задержка видео : 79 мс.
Размер потока : 130 Мбайт (2%)
Язык : Russian
Скриншоты
Скачать

Скачать торрент!

Как скачивать? · Что такое торрент? · Рейтинг и ограничения

Сайт не распространяет и не хранит электронные версии произведений, а лишь предоставляет доступ к создаваемому пользователями каталогу ссылок на торрент-файлы, которые содержат только списки хеш-сумм

[Профиль] [ЛС]
Показать сообщения:    
Ответить на тему

Текущее время: Сегодня 00:41

Часовой пояс: GMT + 4



Вы не можете начинать темы
Вы не можете отвечать на сообщения
Вы не можете редактировать свои сообщения
Вы не можете удалять свои сообщения
Вы не можете голосовать в опросах
Вы не можете прикреплять файлы к сообщениям
Вы не можете скачивать файлы