Третье измерение ада / Дьявол председатель / The Devil\'s Chair (Адам Мэйсон / Adam Mason) [2007, Великобритания, США, ужасы, WEB-DL 720p] MVO (R5) + Original Eng

Ответить на тему
 
Автор Сообщение

user ®

Стаж: 7 лет 7 месяцев

Сообщений: 20008

Пост Пост: #1 от 30-Май-2014 11:50

[Цитировать]

Третье измерение ада / Дьявол председатель / The Devil's Chair
Страна: Великобритания, США
Студия: Renegade Worldwide, Soho Square Films
Жанр: ужасы
Год выпуска: 2007
Продолжительность: 01:30:45
Перевод: Профессиональный (многоголосый закадровый) R5
Cубтитры: нет
Оригинальная аудиодорожка: английский
Режиссер: Адам Мэйсон / Adam Mason
В ролях: Эндрю Ховард, Полли Браун, Оливия Хилл, Надя Брэнд, Эрик М. Брейман, Гари Маккэй, Дэвид Гант, Луиз Гриффитс, Элиз дю Ту, Мэтт Берри
Описание: Праздношатающийся наркодиллер Ник Уэст приглашает свою подружку Сэмми провести время "под кайфом" в заброшенном доме. Исследуя помещение, они натыкаются на странное устройство - нечто среднее между электрическим стулом и садистской машиной идолопоклонников - которое превращает их наркотическую эйфорию в предсмертную агонию. Неведомые силы с упоением раздирают тело Сэмми на кровавые куски. Леденящее кровь зрелище, произошедшее на глазах у Ника, делает его главным подозреваемым в убийстве и пациентом психиатрической клиники. По прошествии нескольких лет принудительного лечения его передают на поруки доктору Вилларду, который с дьявольским упорством желает докопаться до истины, приведшей к убийству. Одержимый психиатр и трое его студентов сопровождают Ника к месту преступления и к тому самому устройству, которое открывает врата в кровавое измерение - вместилище сил, воспринимаемых на грани между помешательством и сверхъестественной реальностью. Механизм снова запущен! Липкая жижа бордового цвета с сладковатым запахом повсюду!
Доп. информация: За основу взят релиз от HDClub, к нему добавлена оригинальная шестиканальная дорожка с DVD, скачанного в сети. Заменена многоголоска iTunes Russia на DVD R5 Видеосервис- переводы одинаковые, качество отличалось.
Sample
Тип релиза: WEB-DL 720p
Контейнер: MKV
Видео: MPEG4 AVC Video, H264, 16:9, 1278x720, 23.976 fps, 3973 kbps
Аудио: Russian (AC3, 6 ch, 448 kbps, 16 bits, 48.0 KHz) - MVO
Аудио 2: English (AC3, 6 ch, 448 kbps, 16 bits, 48.0 KHz) - оригинал
MediaInfo
General
Unique ID : 230738970145521321263492158432258909212 (0xAD96B58DBD7B177C81F19E103F5D641C)
Complete name : E:\1\The.Devil's.Chair.2007.720p.WEB-DL.mkv
Format : Matroska
Format version : Version 4 / Version 2
File size : 3.15 GiB
Duration : 1h 30mn
Overall bit rate : 4 968 Kbps
Encoded date : UTC 2014-05-28 11:58:52
Writing application : mkvmerge v6.1.0 ('Old Devil') built on Mar 2 2013 14:32:37
Writing library : libebml v1.3.0 + libmatroska v1.4.0
Video
ID : 1
Format : AVC
Format/Info : Advanced Video Codec
Format profile : High@L3.1
Format settings, CABAC : No
Format settings, ReFrames : 2 frames
Codec ID : V_MPEG4/ISO/AVC
Duration : 1h 30mn
Bit rate : 3 973 Kbps
Width : 1 278 pixels
Height : 720 pixels
Display aspect ratio : 16:9
Frame rate mode : Constant
Frame rate : 23.976 fps
Color space : YUV
Chroma subsampling : 4:2:0
Bit depth : 8 bits
Scan type : Progressive
Bits/(Pixel*Frame) : 0.180
Stream size : 2.52 GiB (80%)
Language : English
Default : Yes
Forced : No
Color primaries : BT.709
Transfer characteristics : BT.709
Matrix coefficients : BT.709
Audio #1
ID : 2
Format : AC-3
Format/Info : Audio Coding 3
Mode extension : CM (complete main)
Format settings, Endianness : Big
Codec ID : A_AC3
Duration : 1h 30mn
Bit rate mode : Constant
Bit rate : 448 Kbps
Channel count : 6 channels
Channel positions : Front: L C R, Side: L R, LFE
Sampling rate : 48.0 KHz
Bit depth : 16 bits
Compression mode : Lossy
Stream size : 291 MiB (9%)
Language : Russian
Default : Yes
Forced : No
Audio #2
ID : 3
Format : AC-3
Format/Info : Audio Coding 3
Mode extension : CM (complete main)
Format settings, Endianness : Big
Codec ID : A_AC3
Duration : 1h 30mn
Bit rate mode : Constant
Bit rate : 448 Kbps
Channel count : 6 channels
Channel positions : Front: L C R, Side: L R, LFE
Sampling rate : 48.0 KHz
Bit depth : 16 bits
Compression mode : Lossy
Stream size : 291 MiB (9%)
Language : English
Default : No
Forced : No
Menu
00:00:00.000 : en:1
00:04:48.000 : en:2
00:09:01.000 : en:3
00:14:35.000 : en:4
00:20:02.000 : en:5
00:25:06.000 : en:6
00:29:05.000 : en:7
00:33:16.000 : en:8
00:37:51.000 : en:9
00:44:05.000 : en:10
00:47:50.000 : en:11
00:51:37.000 : en:12
00:57:19.000 : en:13
01:03:13.000 : en:14
01:08:24.000 : en:15
01:17:53.000 : en:16
Скриншоты
Скачать

Скачать торрент!

Как скачивать? · Что такое торрент? · Рейтинг и ограничения

Сайт не распространяет и не хранит электронные версии произведений, а лишь предоставляет доступ к создаваемому пользователями каталогу ссылок на торрент-файлы, которые содержат только списки хеш-сумм

[Профиль] [ЛС]
Показать сообщения:    
Ответить на тему

Текущее время: Сегодня 18:18

Часовой пояс: GMT + 4



Вы не можете начинать темы
Вы не можете отвечать на сообщения
Вы не можете редактировать свои сообщения
Вы не можете удалять свои сообщения
Вы не можете голосовать в опросах
Вы не можете прикреплять файлы к сообщениям
Вы не можете скачивать файлы