В бреду / Delirious (Том Манкевич / Tom Mankiewicz) [1991, США, фэнтези, комедия, WEB-DL 720p] DVO (НТВ+) + 2х AVO (Михалев, Марченко) + Original Eng + Sub Eng

Ответить на тему
 
Автор Сообщение

user ®

Стаж: 7 лет 7 месяцев

Сообщений: 20008

Пост Пост: #1 от 30-Май-2014 11:50

[Цитировать]

В бреду / Delirious Страна: США
Студия: Metro-Goldwyn-Mayer (MGM), Star Partners III Ltd.
Жанр: фэнтези, комедия
Год выпуска: 1990
Продолжительность: 01:36:10
Перевод 1: Профессиональный (двухголосый закадровый) НТВ+
Перевод 2: Авторский (одноголосый закадровый) Алексей Михалев
Перевод 3: Авторский (одноголосый закадровый) Александр Марченко
Cубтитры: английские
Оригинальная аудиодорожка: Английский
Режиссер: Том Манкевич / Tom Mankiewicz
В ролях: Джон Кэнди, Мэриэл Хемингуэй, Эмма Сэммс, Рэймонд Бёрр, Дилан Бейкер, Чарльз Роккет, Дэвид Раш, Андреа Томпсон, Зэк Гренье, Джерри Орбак
Описание: Неудачно ударившись головой и потеряв сознание, Джек очнулся в городке Эшфорд Фоллз, где происходит действие его популярной мыльной оперы. Его жизнь пошла по кошмарному сценарию, однако вскоре Джек обнаруживает, что может управлять действительностью, просто написав соответствующий вариант развития событий.
Вооружившись пишущей машинкой, Джек пытается завоевать сердце прекрасной героини сериала. Однако, гладко написанные на бумаге, отношения Джека и его пассии постоянно натыкаются на противодействие «пай-девочки» с репутацией «ходячей аварии». Выиграет ли Джек столь желанную женщину своей мечты? И выиграет ли он столь желанную премию «Эмми» Телевизионной Академии за лучший сериал?

Качество видео:WEB-DL 720p
Формат видео: MKV
Видео кодек: H264
Аудио кодек: AC3
Видео: 1280x692 (1.85:1), 23,976 fps, ~3958 kbps avg, 0.186 bit/pixel
Аудио 1: 48 kHz, AC3 Dolby Digital, 2/0 (L,R) ch, ~192 kbps - НТВ+
Аудио 2: 48 kHz, AC3 Dolby Digital, 2/0 (L,R) ch, ~192 kbps - Михалев
Аудио 3: 48 kHz, AC3 Dolby Digital, 2/0 (L,R) ch, ~192 kbps - Марченко
Аудио 4: 48 kHz, AC3 Dolby Digital, 2/0 (L,R) ch, ~192 kbps - Оригинал
MediaInfo
Complete name : V.bredu.1991.WEBDL720p.mkv
Format : Matroska
Format version : Version 4 / Version 2
File size : 3.24 GiB
Duration : 1h 36mn
Overall bit rate : 4 822 Kbps
Encoded date : UTC 2014-05-29 09:49:00
Writing application : mkvmerge v6.5.0 ('Isn't she lovely') built on Oct 20 2013 12:50:05
Writing library : libebml v1.3.0 + libmatroska v1.4.1
Video
ID : 1
Format : AVC
Format/Info : Advanced Video Codec
Format profile : High@L3.1
Format settings, CABAC : No
Format settings, ReFrames : 2 frames
Codec ID : V_MPEG4/ISO/AVC
Duration : 1h 36mn
Bit rate : 3 958 Kbps
Width : 1 280 pixels
Height : 692 pixels
Display aspect ratio : 1.85:1
Frame rate mode : Constant
Frame rate : 23.976 fps
Color space : YUV
Chroma subsampling : 4:2:0
Bit depth : 8 bits
Scan type : Progressive
Bits/(Pixel*Frame) : 0.186
Stream size : 2.66 GiB (82%)
Language : English
Default : Yes
Forced : No
Color primaries : BT.709
Transfer characteristics : BT.709
Matrix coefficients : BT.709
Audio #1
ID : 2
Format : AC-3
Format/Info : Audio Coding 3
Mode extension : CM (complete main)
Format settings, Endianness : Big
Codec ID : A_AC3
Duration : 1h 36mn
Bit rate mode : Constant
Bit rate : 192 Kbps
Channel(s) : 2 channels
Channel positions : Front: L R
Sampling rate : 48.0 KHz
Bit depth : 16 bits
Compression mode : Lossy
Stream size : 132 MiB (4%)
Title : HTB+
Language : Russian
Default : Yes
Forced : No
Audio #2
ID : 3
Format : AC-3
Format/Info : Audio Coding 3
Mode extension : CM (complete main)
Format settings, Endianness : Big
Codec ID : A_AC3
Duration : 1h 36mn
Bit rate mode : Constant
Bit rate : 192 Kbps
Channel(s) : 2 channels
Channel positions : Front: L R
Sampling rate : 48.0 KHz
Bit depth : 16 bits
Compression mode : Lossy
Stream size : 132 MiB (4%)
Title : Mihalyev
Language : Russian
Default : No
Forced : No
Audio #3
ID : 4
Format : AC-3
Format/Info : Audio Coding 3
Mode extension : CM (complete main)
Format settings, Endianness : Big
Codec ID : A_AC3
Duration : 1h 36mn
Bit rate mode : Constant
Bit rate : 192 Kbps
Channel(s) : 2 channels
Channel positions : Front: L R
Sampling rate : 48.0 KHz
Bit depth : 16 bits
Compression mode : Lossy
Stream size : 132 MiB (4%)
Title : Marchenko
Language : Russian
Default : No
Forced : No
Audio #4
ID : 5
Format : AC-3
Format/Info : Audio Coding 3
Mode extension : CM (complete main)
Format settings, Endianness : Big
Codec ID : A_AC3
Duration : 1h 36mn
Bit rate mode : Constant
Bit rate : 192 Kbps
Channel(s) : 2 channels
Channel positions : Front: L R
Sampling rate : 48.0 KHz
Bit depth : 16 bits
Compression mode : Lossy
Stream size : 132 MiB (4%)
Title : Original
Language : English
Default : No
Forced : No
Text
ID : 6
Format : UTF-8
Codec ID : S_TEXT/UTF8
Codec ID/Info : UTF-8 Plain Text
Language : English
Default : No
Forced : No
Menu
00:00:00.000 : en:Chapter 1
00:12:38.000 : en:Chapter 2
00:24:19.000 : en:Chapter 3
00:34:17.000 : en:Chapter 4
00:46:34.000 : en:Chapter 5
01:01:18.000 : en:Chapter 6
01:12:36.000 : en:Chapter 7
01:23:51.000 : en:Chapter 8
Скриншоты
Скачать

Скачать торрент!

Как скачивать? · Что такое торрент? · Рейтинг и ограничения

Сайт не распространяет и не хранит электронные версии произведений, а лишь предоставляет доступ к создаваемому пользователями каталогу ссылок на торрент-файлы, которые содержат только списки хеш-сумм

[Профиль] [ЛС]
Показать сообщения:    
Ответить на тему

Текущее время: Сегодня 17:44

Часовой пояс: GMT + 4



Вы не можете начинать темы
Вы не можете отвечать на сообщения
Вы не можете редактировать свои сообщения
Вы не можете удалять свои сообщения
Вы не можете голосовать в опросах
Вы не можете прикреплять файлы к сообщениям
Вы не можете скачивать файлы