Оккупанты / Незванные гости / The Occupants (Тодд Элкотт / Todd Alcott) [2014, США, Триллер, WEBRip] VO (datynet)

Ответить на тему
 
Автор Сообщение

user ®

Стаж: 7 лет 7 месяцев

Сообщений: 20008

Пост Пост: #1 от 29-Май-2014 11:05

[Цитировать]

Оккупанты / Незванные гости / The Occupants
Страна: США
Жанр: Триллер
Год выпуска: 2014
Продолжительность: 01:19:20
Перевод: Одноголосый закадровый datynet
Перевод: Janetta
Cубтитры: нет
Оригинальная аудиодорожка: нет
Режиссер: Тодд Элкотт / Todd Alcott
В ролях: Кристен Ариза, Ашанти Браун, Мэйси Кратед, Мэри Пэт Фаррелл, Гэйл Голден, Тоби Хасс, Кэтрин Кэми, Кристин Милиоти
Описание: У Люси есть муж, новый дом и ребенок, но старые призраки не позволяют ей жить. Она пытается помочь душам освободиться от мучений и двигаться дальше, но вскоре обнаруживает, что призраки не хотят ее помощи.
Доп. информация:
Kinopoisk
IMDB
Sample
Качество видео: WEBRip
Формат видео: AVI
Видео: 640x352 (1.82:1), 23.976 fps, XviD MPEG-4 ~1120 kbps avg, 0.21 bit/pixel
Аудио: 44.100 kHz, MPEG Layer 3, 2 ch, ~192.00 kbps avg
MediaInfo
General
Complete name : C:\Users\Вика\Desktop\The.Occupants.2014.WEBRip.XviD.avi
Format : AVI
Format/Info : Audio Video Interleave
File size : 750 MiB
Duration : 1h 19mn
Overall bit rate : 1 322 Kbps
Writing application : VirtualDubMod 1.5.10.2 (build 2540/release)
Writing library : VirtualDubMod build 2540/release
Video
ID : 0
Format : MPEG-4 Visual
Format profile : Advanced Simple@L5
Format settings, BVOP : Yes
Format settings, QPel : No
Format settings, GMC : No warppoints
Format settings, Matrix : Default (H.263)
Codec ID : XVID
Codec ID/Hint : XviD
Duration : 1h 19mn
Bit rate : 1 121 Kbps
Width : 640 pixels
Height : 352 pixels
Display aspect ratio : 16:9
Frame rate : 23.976 fps
Color space : YUV
Chroma subsampling : 4:2:0
Bit depth : 8 bits
Scan type : Progressive
Compression mode : Lossy
Bits/(Pixel*Frame) : 0.207
Stream size : 636 MiB (85%)
Writing library : XviD 62
Audio
ID : 1
Format : MPEG Audio
Format version : Version 1
Format profile : Layer 3
Codec ID : 55
Codec ID/Hint : MP3
Duration : 1h 19mn
Bit rate mode : Constant
Bit rate : 192 Kbps
Channel count : 2 channels
Sampling rate : 44.1 KHz
Compression mode : Lossy
Delay relative to video : 4ms
Stream size : 109 MiB (15%)
Alignment : Split accross interleaves
Interleave, duration : 42 ms (1.00 video frame)
Interleave, preload duration : 500 ms
Скриншот c названием фильма Скриншоты
Скачать

Скачать торрент!

Как скачивать? · Что такое торрент? · Рейтинг и ограничения

Сайт не распространяет и не хранит электронные версии произведений, а лишь предоставляет доступ к создаваемому пользователями каталогу ссылок на торрент-файлы, которые содержат только списки хеш-сумм

[Профиль] [ЛС]
Показать сообщения:    
Ответить на тему

Текущее время: Сегодня 02:26

Часовой пояс: GMT + 4



Вы не можете начинать темы
Вы не можете отвечать на сообщения
Вы не можете редактировать свои сообщения
Вы не можете удалять свои сообщения
Вы не можете голосовать в опросах
Вы не можете прикреплять файлы к сообщениям
Вы не можете скачивать файлы