Всё хорошо, что хорошо кончается 2012 / Восьмое счастье/ All\'s Well End\'s Well 2012 / Baat seng bou hei (Хинг-Ка Чан / Hing-Ka Chan) [2012, Гонконг, комедия, мелодрама, HDRip-AVC] DVO + original + sub

Ответить на тему
 
Автор Сообщение

user ®

Стаж: 11 лет

Сообщений: 15151

Пост Пост: #1 от 29-Май-2014 03:00

[Цитировать]

Всё хорошо, что хорошо кончается 2012 / Восьмое счастье/ All's Well End's Well 2012 / Baat seng bou hei
Год выпуска: 2012
Страна: Гонконг
Жанр: комедия, мелодрама
Продолжительность: 01:58:17
Перевод: Любительский (двухголосый закадровый)
Русские субтитры: есть
Оригинальная аудиодорожка: Китайский
Режиссер: Хинг-Ка Чан / Hing-Ka Chan
В ролях: ││ Донни Ен ││ Луис Ку ││ Чэпман То ││ Бак-Минг Вонг ││ Келли Чен ││ Линн Хунг ││ Сандра Нг ││
Описание: Представьте, что существует сайт, где каждая женщина может получить мужскую помощь совершенно бесплатно. Ну или почти бесплатно. За объятие. И угораздило же попасть на этот сайт четырёх совершенно разных парней.
Некогда популярный певец, а ныне бездельник и мечтатель готов стать парнем на вечер для отчаянно нуждающейся женщины, строитель Кин, легко сгибающий стальной прут, вызвался попозировать перед камерой для девушки-фотографа, писатель Хьюго, пишущий женские романы под псевдонимом, спешит помочь невинной девушке, жаждущей любви, а "грязный" адвокат Ричард не против побыть фальшивым отцом.
Получат ли они свои объятия? Всё сложно и запутано, но всё хорошо, что хорошо кончается!(с) Умный Веник
Релиз группы: и
Доп. информация: За перевод и предоставленные субтитры огромное спасибо Вячеслав "Умный Веник" Пашковский.
Озвучивание Ворон и Wenlana
Прежде чем качать видео и комментировать, скачайте сэмпл и послушайте!
Качество: HDRip-AVC - Сэмпл
Исходник: All's.Well.End's.Well.2012.1080p.BluRay.x264.DTS.2Audio-HDChina
Формат видео: mkv
Видео: 720x304 (2.368:1), 24 fps, x264 ~1737 kbps avg, 0.331 bit/pixel
Аудио: 48 kHz, AC3 Dolby Digital, 3/2 (L,C,R,l,r) + LFE ch, ~448 kbps (Русский)
Аудио: 48 kHz, AC3 Dolby Digital, 3/2 (L,C,R,l,r) + LFE ch, ~448 kbps (Китайский)
Формат субтитров: softsub (srt)
Скриншоты Пример Субтитров
1
00:00:29,625 --> 00:00:30,342
Загорелось!
2
00:00:36,333 --> 00:00:37,004
Что же делать?
3
00:00:41,000 --> 00:00:42,873
Неважно, насколько независимы женщины
4
00:00:42,875 --> 00:00:45,123
Им не обойтись без помощи мужчин
5
00:00:45,500 --> 00:00:48,299
У мужчин слишком много свободного времени
6
00:00:48,542 --> 00:00:51,091
Им нужно как-то его убивать
7
00:00:52,000 --> 00:00:54,419
Что если я смогу направить их безделье
8
00:00:54,542 --> 00:00:56,740
На помощь нуждающимся женщинам?
9
00:00:56,792 --> 00:00:58,139
Это будет здорово!
10
00:00:59,750 --> 00:01:02,424
Решено! Создам веб-сайт
11
00:01:02,625 --> 00:01:04,719
Для связи нуждающихся женщин
12
00:01:04,917 --> 00:01:08,421
Со скучающими от безделья парнями
13
00:01:12,625 --> 00:01:13,997
Только с одним правилом
14
00:01:14,000 --> 00:01:16,523
Мужчины не должны использовать сайт для других целей
15
00:01:16,542 --> 00:01:17,994
Только для помощи женщинам
16
00:01:18,042 --> 00:01:20,795
Если женщина останется довольна помощью,
отчет MediaInfo
Формат : Matroska
Версия формата : Version 2
Размер файла : 2,18 Гбайт
Продолжительность : 1 ч. 58 м.
Общий поток : 2635 Кбит/сек
Дата кодирования : UTC 2014-05-28 18:36:57
Программа кодирования : mkvmerge v6.9.1 ('Blue Panther') 32bit built on Apr 18 2014 18:15:44
Библиотека кодирования : libebml v1.3.0 + libmatroska v1.4.1
Видео
Идентификатор : 1
Формат : AVC
Формат/Информация : Advanced Video Codec
Профиль формата : High@L4.1
Параметр CABAC формата : Да
Параметр ReFrames формата : 11 кадров
Идентификатор кодека : V_MPEG4/ISO/AVC
Продолжительность : 1 ч. 58 м.
Битрейт : 1737 Кбит/сек
Ширина : 720 пикселей
Высота : 304 пикселя
Соотношение сторон : 2,35:1
Режим частоты кадров : Постоянный
Частота кадров : 24,000 кадра/сек
Цветовое пространство : YUV
Субдискретизация насыщенности : 4:2:0
Битовая глубина : 8 бит
Тип развёртки : Прогрессивная
Бит/(Пиксели*Кадры) : 0.331
Размер потока : 1,39 Гбайт (64%)
Библиотека кодирования : x264 core 140 r2377 1ca7bb9
Настройки программы : cabac=1 / ref=11 / deblock=1:-2:-1 / analyse=0x3:0x133 / me=umh / subme=10 / psy=1 / psy_rd=1.00:0.00 / mixed_ref=1 / me_range=24 / chroma_me=1 / trellis=2 / 8x8dct=1 / cqm=0 / deadzone=21,11 / fast_pskip=1 / chroma_qp_offset=-2 / threads=6 / lookahead_threads=1 / sliced_threads=0 / nr=0 / decimate=0 / interlaced=0 / bluray_compat=0 / constrained_intra=0 / bframes=11 / b_pyramid=2 / b_adapt=2 / b_bias=0 / direct=3 / weightb=1 / open_gop=0 / weightp=2 / keyint=240 / keyint_min=24 / scenecut=40 / intra_refresh=0 / rc_lookahead=60 / rc=2pass / mbtree=0 / bitrate=1737 / ratetol=1.0 / qcomp=0.65 / qpmin=10 / qpmax=51 / qpstep=4 / cplxblur=20.0 / qblur=0.5 / vbv_maxrate=62500 / vbv_bufsize=78125 / nal_hrd=none / filler=0 / ip_ratio=1.40 / pb_ratio=1.30 / aq=1:1.00
Язык : English
Default : Да
Forced : Нет
Коэффициенты матрицы : BT.709
Аудио #1
Идентификатор : 2
Формат : AC-3
Формат/Информация : Audio Coding 3
Расширение режима : CM (complete main)
Параметр Endianness формата : Big
Идентификатор кодека : A_AC3
Продолжительность : 1 ч. 58 м.
Вид битрейта : Постоянный
Битрейт : 448 Кбит/сек
Каналы : 6 каналов
Расположение каналов : Front: L C R, Side: L R, LFE
Частота : 48,0 КГц
Битовая глубина : 16 бит
Метод сжатия : С потерями
Размер потока : 379 Мбайт (17%)
Заголовок : Ворон и Wenlana
Язык : Russian
Default : Да
Forced : Нет
Аудио #2
Идентификатор : 3
Формат : AC-3
Формат/Информация : Audio Coding 3
Расширение режима : CM (complete main)
Параметр Endianness формата : Big
Идентификатор кодека : A_AC3
Продолжительность : 1 ч. 58 м.
Вид битрейта : Постоянный
Битрейт : 448 Кбит/сек
Каналы : 6 каналов
Расположение каналов : Front: L C R, Side: L R, LFE
Частота : 48,0 КГц
Битовая глубина : 16 бит
Метод сжатия : С потерями
Размер потока : 379 Мбайт (17%)
Заголовок : Original
Язык : Chinese
Default : Нет
Forced : Нет
Текст
Идентификатор : 4
Формат : UTF-8
Идентификатор кодека : S_TEXT/UTF8
Идентификатор кодека/Информация : UTF-8 Plain Text
Заголовок : Перевод - Умный Веник
Язык : Russian
Default : Нет
Forced : Нет
Скачать

Скачать торрент! Всё хорошо, что хорошо кончается 2012 / Восьмое счастье/ All\'s Well End\'s Well 2012 / Baat seng bou hei (Хинг-Ка Чан / Hing-Ka Chan) [2012, Гонконг, комедия, мелодрама, HDRip-AVC] DVO + original + sub

Как скачивать? · Что такое торрент? · Рейтинг и ограничения

Сайт не распространяет и не хранит электронные версии произведений, а лишь предоставляет доступ к создаваемому пользователями каталогу ссылок на торрент-файлы, которые содержат только списки хеш-сумм

[Профиль] [ЛС]
Показать сообщения:    
Ответить на тему

Текущее время: Сегодня 23:51

Часовой пояс: GMT + 4



Вы не можете начинать темы
Вы не можете отвечать на сообщения
Вы не можете редактировать свои сообщения
Вы не можете удалять свои сообщения
Вы не можете голосовать в опросах
Вы не можете прикреплять файлы к сообщениям
Вы не можете скачивать файлы