Телефонная будка / Phone Booth (Джоэл Шумахер / Joel Schumacher) [2002, США, Триллер, HDTV 1080i] Dub

Ответить на тему
 
Автор Сообщение

user ®

Стаж: 7 лет 7 месяцев

Сообщений: 20008

Пост Пост: #1 от 28-Май-2014 23:50

[Цитировать]

Телефонная будка / Phone Booth
Страна: США
Жанр: Триллер
Год выпуска: 2002
Продолжительность: 01:13:17
Перевод: Профессиональный (дублированный)
Cубтитры: нет
Оригинальная аудиодорожка: нет
Режиссер: Джоэл Шумахер / Joel Schumacher
В ролях: Колин Фаррелл, Кифер Сазерленд, Форест Уайтекер, Рада Митчелл, Кейти Холмс, Пола Джей Паркер и др.
Описание: Нью-йоркский журналист Стюарт Шепард отзывается на звонок, разрывающий уличную телефонную будку. Его неосторожность оборачивается ему боком: человек на том конце провода заявляет, что если Шепард положит трубку и выйдет из будки, он его пристрелит. И это не пустая угроза — Шепард ощущает на себе красный глазок лазерного прицела засевшего напротив снайпера. Все проблемы, мучившие его раньше, теперь потеряли всякий смысл. Сейчас он должен заглянуть себе в душу настолько глубоко, чтобы найти там силы стать героем...
Доп. информация: HDTV имеет большее наполнение кадра, чем BD http://screenshotcomparison.com/comparison/76085
Сэмпл: http://multi-up.com/976683
Качество видео: HDTV 1080i
Формат видео: ts
Видео: AVC, 1920x1080 (16/9), 25.000 fps, 13.1 Mbps (0.254 bit/pixel)
Аудио: MP2, 48.0 KHz, 2 ch, 192 Kbps, CBR (Russian)
MediaInfo
Общее
Идентификатор : 3 (0x3)
Полное имя : K:\Телефонная будка.ts
Формат : MPEG-TS
Размер файла : 7,34 Гбайт
Продолжительность : 1 ч. 13 м.
Режим общего битрейта : Переменный
Общий поток : 14,3 Мбит/сек
Видео
Идентификатор : 2141 (0x85D)
Идентификатор меню : 21004 (0x520C)
Формат : AVC
Формат/Информация : Advanced Video Codec
Профиль формата : Main@L4.0
Параметр CABAC формата : Да
Параметр ReFrames формата : 3 кадра
Идентификатор кодека : 27
Продолжительность : 1 ч. 13 м.
Битрейт : 13,4 Мбит/сек
Ширина : 1920 пикселей
Высота : 1080 пикселей
Соотношение сторон : 16:9
Частота кадров : 25,000 кадров/сек
Стандарт вещания : Component
Цветовое пространство : YUV
Субдискретизация насыщенности : 4:2:0
Битовая глубина : 8 бит
Тип развёртки : Чересстрочная
Порядок развёртки : Верхнее поле первое
Бит/(Пиксели*Кадры) : 0.259
Размер потока : 6,87 Гбайт (94%)
Основные цвета : BT.709
Характеристики трансфера : BT.709
Коэффициенты матрицы : BT.709
Аудио
Идентификатор : 2142 (0x85E)
Идентификатор меню : 21004 (0x520C)
Формат : MPEG Audio
Версия формата : Version 1
Профиль формата : Layer 2
Идентификатор кодека : 4
Продолжительность : 1 ч. 13 м.
Вид битрейта : Постоянный
Битрейт : 192 Кбит/сек
Каналы : 2 канала
Частота : 48,0 КГц
Метод сжатия : С потерями
Задержка видео : -2 мс.
Размер потока : 101 Мбайт (1%)
Язык : Russian
Скриншоты
Скачать

Скачать торрент!

Как скачивать? · Что такое торрент? · Рейтинг и ограничения

Сайт не распространяет и не хранит электронные версии произведений, а лишь предоставляет доступ к создаваемому пользователями каталогу ссылок на торрент-файлы, которые содержат только списки хеш-сумм

[Профиль] [ЛС]
Показать сообщения:    
Ответить на тему

Текущее время: Сегодня 00:03

Часовой пояс: GMT + 4



Вы не можете начинать темы
Вы не можете отвечать на сообщения
Вы не можете редактировать свои сообщения
Вы не можете удалять свои сообщения
Вы не можете голосовать в опросах
Вы не можете прикреплять файлы к сообщениям
Вы не можете скачивать файлы