Лондонский Мост / London Bridge ( Анил С. Менон / Anil C. Menon ) [2014, Индия, Драма, мелодрама, DVDRip] Sub Rus

Ответить на тему
 
Автор Сообщение

user ®

Стаж: 12 лет

Сообщений: 15125

Пост Пост: #1 от 28-Май-2014 20:40

[Цитировать]

Лондонский Мост / London Bridge
Страна: Индия
Жанр: Драма, мелодрама
Год выпуска: 2014
Продолжительность: 02:26:22
Перевод: Субтитры
Cубтитры: русские
Оригинальная аудиодорожка: Малаялами
Режиссер: Анил С. Менон / Anil C. Menon
В ролях: Притвирадж Сакумаран, Свати Редди, Пратап Потхен, Андреа Джеремия, Нитья
Описание: Он – мелкий бизнесмен из Лондона: неплохо умеет наживать капитал, еще лучше – врагов. Она – эксцентричная дочь британского миллионера: наследница огромного состояния, которая просит подаяния на благотворительные нужды. Он подсчитал, как много можно добиться с ее миллионами, и готов на время стать пай-мальчиком, да вот беда: девчонка насквозь видит все его уловки. И тут судьба дарит парню настоящий шанс: беспомощную девушку, у которой в результате ДТП парализована рука. Легче всего завоевать сердце богачки, склонной к благотворительности, если продемонстрировать доброе сердце. Но показная забота перерастает в искреннее стремление облегчить бедняжке жизнь. Так, соединяя два сердца, Лондонский мост неизбежно отдаляет третье…
Доп. информация:
Сэмпл / Sample
Перевод и редакция:jyoti
Риппер:randy23

Релиз-группа:
Субтитры не предназначены для коммерческого использования и продажи через интернет-магазины, а также без разрешения переводчика. При копировании – соблюдайте оформление до буквы.
Качество видео: DVDRip
Формат видео: AVI
Видео: XviD, 720х304, 23.976 fps, 1138 kbps
Аудио: AC3, 48 kHz, 5.1 (6 ch), 448 kbps
Формат субтитров: hardsub (неотключаемые)
MediaInfo
Общее
Полное имя : E:\Downloads\MOVIES\BWT-BAZA\2014\PRIMĂVARA\Londonskyi.Most.2014.DVDRip.XviD.BwTorrents.avi
Формат : AVI
Формат/Информация : Audio Video Interleave
Размер файла : 1,63 Гбайт
Продолжительность : 2 ч. 26 м.
Общий поток : 1596 Кбит/сек
Программа кодирования : VirtualDubMod 1.5.10.3 | www.virtualdub-fr.org || (build 2550/release)
Библиотека кодирования : VirtualDubMod build 2550/release
Видео
Идентификатор : 0
Формат : MPEG-4 Visual
Профиль формата : Advanced Simple@L5
Параметр BVOP формата : 2
Параметр QPel формата : Нет
Параметр GMC формата : Без точки перехода
Параметр матрицы формата : Default (MPEG)
Идентификатор кодека : XVID
Идентификатор кодека/Подсказка : XviD
Продолжительность : 2 ч. 26 м.
Битрейт : 1139 Кбит/сек
Ширина : 720 пикселей
Высота : 304 пикселя
Соотношение сторон : 2,35:1
Частота кадров : 23,976 кадра/сек
Цветовое пространство : YUV
Субдискретизация насыщенности : 4:2:0
Битовая глубина : 8 бит
Тип развёртки : Прогрессивная
Метод сжатия : С потерями
Бит/(Пиксели*Кадры) : 0.217
Размер потока : 1,16 Гбайт (71%)
Библиотека кодирования : XviD 63
Аудио
Идентификатор : 1
Формат : AC-3
Формат/Информация : Audio Coding 3
Расширение режима : CM (complete main)
Параметр Endianness формата : Big
Идентификатор кодека : 2000
Продолжительность : 2 ч. 26 м.
Вид битрейта : Постоянный
Битрейт : 448 Кбит/сек
Каналы : 6 каналов
Расположение каналов : Front: L C R, Side: L R, LFE
Частота : 48,0 КГц
Битовая глубина : 16 бит
Метод сжатия : С потерями
Размер потока : 469 Мбайт (28%)
Выравнивание : Разделение по промежуткам
Продолжительность промежутка : 42 мс. (1,00 видеокадр)
Время предзагрузки промежутка : 500 мс.
Скриншот c названием фильма Скриншоты
Скачать

Скачать торрент! Лондонский Мост / London Bridge ( Анил С. Менон / Anil C. Menon ) [2014, Индия, Драма, мелодрама, DVDRip] Sub Rus

Как скачивать? · Что такое торрент? · Рейтинг и ограничения

Сайт не распространяет и не хранит электронные версии произведений, а лишь предоставляет доступ к создаваемому пользователями каталогу ссылок на торрент-файлы, которые содержат только списки хеш-сумм

[Профиль] [ЛС]
Показать сообщения:    
Ответить на тему

Текущее время: Сегодня 00:53

Часовой пояс: GMT + 4



Вы не можете начинать темы
Вы не можете отвечать на сообщения
Вы не можете редактировать свои сообщения
Вы не можете удалять свои сообщения
Вы не можете голосовать в опросах
Вы не можете прикреплять файлы к сообщениям
Вы не можете скачивать файлы