Говори это снова и снова / Kehtaa Hai Dil Baar Baar (Рахул Дилип / Rahul Dholakia) [2002, Индия, США, мелодрама, комедия, VHSRip] DVO

Ответить на тему
 
Автор Сообщение

user ®

Стаж: 13 лет

Сообщений: 15070

Пост Пост: #1 от 28-Май-2014 01:00

[Цитировать]

Говори это снова и снова / Kehtaa Hai Dil Baar Baar
Страна: Индия, США
Жанр: мелодрама, комедия
Год выпуска: 2002
Продолжительность: 01:58:23
Перевод: Любительский (двухголосый закадровый)
Cубтитры: нет
Оригинальная аудиодорожка: нет
Режиссер: Рахул Дилип / Rahul Dholakia
В ролях: Пареш Раваль, Джимми Шергилл, Ким Шарма, Джонни Левер, Ранджит, Нина Кулкарни, Парзаан Дастур, Динеш Хингу, Пуджа Гупта
Описание: Сундер Капур приехал в США с конкретной целью — познакомить американцев со здоровой индийской пищей. Его передвижной вагончик с пищей быстрого приготовления прочно обосновался на улицах Нью-Йорка.
Однажды он встречает Риту и влюбляется в нее с первого взгляда. Но у Риты есть респектабельный отец, готовый отдать дочку замуж только за богатого и солидного жениха...
Сэмпл: http://multi-up.com/976469
Качество видео: VHSRip
Формат видео: MP4
Видео: MPEG4 Video (H264) 320x146 15.00fps
Аудио: AAC 44100Hz stereo 96kbps
MediaInfo
General
Complete name: D:\ЗАКАЧКИ\Говори это снова и снова. Индийское кино, Любовный роман.mp4
Format: MPEG-4
Format profile: Base Media / Version 2
Codec ID: mp42
File size: 275 MiB
Duration: 1h 58mn
Overall bit rate mode: Variable
Overall bit rate: 324 Kbps
Encoded date: UTC 2014-03-23 14:28:04
Tagged date: UTC 2014-03-23 14:28:04
gsst: 0
gstd: 7103773
gssd: BADC21501HH1401194081500380
gshh: r3---sn-3c27en7e.googlevideo.com
Video
ID: 1
Format: AVC
Format/Info: Advanced Video Codec
Format profile: Baseline@L1.3
Format settings, CABAC: No
Format settings, ReFrames: 1 frame
Codec ID: avc1
Codec ID/Info: Advanced Video Coding
Duration: 1h 58mn
Bit rate: 226 Kbps
Maximum bit rate: 649 Kbps
Width: 320 pixels
Height: 146 pixels
Display aspect ratio: 2.2:1
Frame rate mode: Constant
Frame rate: 15.000 fps
Color space: YUV
Chroma subsampling: 4:2:0
Bit depth: 8 bits
Scan type: Progressive
Bits/(Pixel*Frame): 0.323
Stream size: 192 MiB (70%)
Tagged date: UTC 2014-03-23 14:28:16
Audio
ID: 2
Format: AAC
Format/Info: Advanced Audio Codec
Format profile : LC
Codec ID: 40
Duration: 1h 58mn
Bit rate mode: Variable
Bit rate: 96.0 Kbps
Maximum bit rate: 105 Kbps
Channel(s): 2 channels
Channel positions: Front: L R
Sampling rate: 44.1 KHz
Compression mode: Lossy
Stream size: 81.3 MiB (30%)
Title: IsoMedia File Produced by Google, 5-11-2011
Encoded date : UTC 2014-03-23 14:28:10
Tagged date: UTC 2014-03-23 14:28:16
Скриншот c названием фильма Скриншоты
Скачать

Скачать торрент! Говори это снова и снова / Kehtaa Hai Dil Baar Baar (Рахул Дилип / Rahul Dholakia) [2002, Индия, США, мелодрама, комедия, VHSRip] DVO

Как скачивать? · Что такое торрент? · Рейтинг и ограничения

Сайт не распространяет и не хранит электронные версии произведений, а лишь предоставляет доступ к создаваемому пользователями каталогу ссылок на торрент-файлы, которые содержат только списки хеш-сумм

[Профиль] [ЛС]
Показать сообщения:    
Ответить на тему

Текущее время: Сегодня 16:52

Часовой пояс: GMT + 4



Вы не можете начинать темы
Вы не можете отвечать на сообщения
Вы не можете редактировать свои сообщения
Вы не можете удалять свои сообщения
Вы не можете голосовать в опросах
Вы не можете прикреплять файлы к сообщениям
Вы не можете скачивать файлы