Аббат Шаолиня / Shaolin Abbot / Shao Lin Ying Xiong Bang (Хо Мен Хуа / Ho Meng Hua) [1979, Гонконг, боевые искусства, DVDRip] MVO (2x2) + DVO (Magic Blade)

Ответить на тему
 
Автор Сообщение

user ®

Стаж: 11 лет

Сообщений: 15151

Пост Пост: #1 от 27-Май-2014 10:35

[Цитировать]

Аббат Шаолиня / Shaolin Abbot / Shao Lin Ying Xiong Bang
Страна: Гонконг
Студия: Shaw Brothers
Жанр: боевые искусства
Год выпуска: 1979
Продолжительность: 01:19:11
Перевод 1: Профессиональный (многоголосый закадровый) 2x2
Перевод 2: Любительский (двухголосый закадровый) Magic Blade
Cубтитры: нет
Оригинальная аудиодорожка: китайский
Режиссер: Хо Мен Хуа / Ho Meng Hua
В ролях: Дэвид Чианг, Ло Лье, Лили Ли, Норман Чу, Брюс Тонг, Чанг Тао
Описание: Действие разворачивается в один из самых любимых периодов китайской истории, когда был сожжён храм Шаолинь. Молодой послушник храма (Девид Чианг) уходит в путешествие до отшельника, который обещал чертежи оружия для монахов, однако во время его отсутствия монастырь сжигают и вернувшись на останки, он решает построить новый храм, как говорится, лучше прежнего. Для этого он отправляется в Кантон, где начинает собирать деньги на строительство, однако жить ему спокойно не дадут. В частности, весьма хочет его смерти лама Пай Мей (Ло Лье), обладающий почти полной неуязвимостью. (Akira)
II Сэмпл II IMDB II
Качество видео: DVDRip
Формат видео: AVI
Видео: Xvid 704x304 (2.32:1) 29.970fps Bit rate 2064Kbps b/p 0.332
Аудио 1: AC3 48.0 KHz 2ch. 192kbps rus mvo
Аудио 2: AC3 48.0 KHz 2ch. 192kbps rus dvo
Аудио 3: AC3 48.0 KHz 2ch. 192kbps eng
MediaInfo
Общее
Полное имя : E:\torrent\Shaolin.Abbot.DVDRip.avi
Формат : AVI
Формат/Информация : Audio Video Interleave
Размер файла : 1,47 Гбайт
Продолжительность : 1 ч. 19 м.
Общий поток : 2663 Кбит/сек
Программа кодирования : VirtualDubMod 1.5.10.2 (build 2542/release)
Библиотека кодирования : VirtualDubMod build 2542/release
Видео
Идентификатор : 0
Формат : MPEG-4 Visual
Профиль формата : Advanced Simple@L5
Параметр BVOP формата : 2
Параметр QPel формата : Нет
Параметр GMC формата : Без точки перехода
Параметр матрицы формата : Default (H.263)
Идентификатор кодека : XVID
Идентификатор кодека/Подсказка : XviD
Продолжительность : 1 ч. 19 м.
Битрейт : 2064 Кбит/сек
Ширина : 704 пикселя
Высота : 304 пикселя
Соотношение сторон : 2,35:1
Частота кадров : 29,970 кадров/сек
Цветовое пространство : YUV
Субдискретизация насыщенности : 4:2:0
Битовая глубина : 8 бит
Тип развёртки : Прогрессивная
Метод сжатия : С потерями
Бит/(Пиксели*Кадры) : 0.322
Размер потока : 1,14 Гбайт (77%)
Библиотека кодирования : XviD 1.2.1 (UTC 2008-12-04)
Аудио #1
Идентификатор : 1
Формат : AC-3
Формат/Информация : Audio Coding 3
Расширение режима : CM (complete main)
Параметр Endianness формата : Big
Идентификатор кодека : 2000
Продолжительность : 1 ч. 19 м.
Вид битрейта : Постоянный
Битрейт : 192 Кбит/сек
Каналы : 2 канала
Расположение каналов : Front: L R
Частота : 48,0 КГц
Битовая глубина : 16 бит
Метод сжатия : С потерями
Размер потока : 109 Мбайт (7%)
Выравнивание : Разделение по промежуткам
Продолжительность промежутка : 33 мс. (1,00 видеокадр)
Время предзагрузки промежутка : 500 мс.
Аудио #2
Идентификатор : 2
Формат : AC-3
Формат/Информация : Audio Coding 3
Расширение режима : CM (complete main)
Параметр Endianness формата : Big
Идентификатор кодека : 2000
Продолжительность : 1 ч. 19 м.
Вид битрейта : Постоянный
Битрейт : 192 Кбит/сек
Каналы : 2 канала
Расположение каналов : Front: L R
Частота : 48,0 КГц
Битовая глубина : 16 бит
Метод сжатия : С потерями
Размер потока : 109 Мбайт (7%)
Выравнивание : Разделение по промежуткам
Продолжительность промежутка : 33 мс. (1,00 видеокадр)
Время предзагрузки промежутка : 500 мс.
Аудио #3
Идентификатор : 3
Формат : AC-3
Формат/Информация : Audio Coding 3
Расширение режима : CM (complete main)
Параметр Endianness формата : Big
Идентификатор кодека : 2000
Продолжительность : 1 ч. 19 м.
Вид битрейта : Постоянный
Битрейт : 192 Кбит/сек
Каналы : 2 канала
Расположение каналов : Front: L R
Частота : 48,0 КГц
Битовая глубина : 16 бит
Метод сжатия : С потерями
Размер потока : 109 Мбайт (7%)
Выравнивание : Разделение по промежуткам
Продолжительность промежутка : 33 мс. (1,00 видеокадр)
Время предзагрузки промежутка : 500 мс.
Скриншот c названием фильма Скриншоты
Скачать

Скачать торрент! Аббат Шаолиня / Shaolin Abbot / Shao Lin Ying Xiong Bang (Хо Мен Хуа / Ho Meng Hua) [1979, Гонконг, боевые искусства, DVDRip] MVO (2x2) + DVO (Magic Blade)

Как скачивать? · Что такое торрент? · Рейтинг и ограничения

Сайт не распространяет и не хранит электронные версии произведений, а лишь предоставляет доступ к создаваемому пользователями каталогу ссылок на торрент-файлы, которые содержат только списки хеш-сумм

[Профиль] [ЛС]
Показать сообщения:    
Ответить на тему

Текущее время: Сегодня 15:48

Часовой пояс: GMT + 4



Вы не можете начинать темы
Вы не можете отвечать на сообщения
Вы не можете редактировать свои сообщения
Вы не можете удалять свои сообщения
Вы не можете голосовать в опросах
Вы не можете прикреплять файлы к сообщениям
Вы не можете скачивать файлы