Ржевский против Наполеона (Марюс Вайсберг) [2012, комедия, HDRip]

Ответить на тему
 
Автор Сообщение

user ®

Стаж: 7 лет 7 месяцев

Сообщений: 20008

Пост Пост: #1 от 26-Май-2014 20:05

[Цитировать]

Ржевский против Наполеона- Жанр: комедия
Год выпуска: 2012
Продолжительность: 01:23:08-Режиссёр: Марюс Вайсберг-В ролях: Павел Деревянко, Владимир Зеленский, Светлана Ходченкова, Михаил Ефремов, Марат Башаров, Евгений Кошевой, Жан-Клод Ван Дамм, Анна Семенович, Анфиса Чехова, Михаил Галустян-Описание: Чтобы развеять скуку, Наполеон Бонапарт затеял мировую войну. Не пропуская ни одной юбки, он оказывается со своей армией у ворот Первопрестольной. Русские полководцы решают внедрить к нему неприступную красавицу, la femme fatal, чтобы отвлечь узурпатора от захватнической деятельности. Только какая настоящая женщина устоит перед обаянием этого великого бабника? Ненастоящая!!! В смысле - переодетый мужчина! И такой мужчина есть - поручик Ржевский...-Сэмпл: http://multi-up.com/976218-Качество видео: HDRip
Формат видео: AVI
Видео кодек: XviD
Аудио кодек: МР3
Видео: 688x288 (2.39:1), 23.976 fps, XviD build 73 ~1122 kbps avg, 0.24 bit/pixel
Аудио: 48 kHz, MPEG Layer 3, 2 ch, ~128.00 kbps avg

MediaInfo
Общее
Полное имя : D:\Rzhevskij.protiv.Napoleona.2012.HDRip_by_Danres.avi
Формат : AVI
Формат/Информация : Audio Video Interleave
Размер файла : 749 Мбайт
Продолжительность : 1 ч. 23 м.
Общий поток : 1260 Кбит/сек
Программа кодирования : VirtualDubMod 1.5.10.3 | www.virtualdub-fr.org || (build 2550/release)
Библиотека кодирования : VirtualDubMod build 2550/release
Видео
Идентификатор : 0
Формат : MPEG-4 Visual
Профиль формата : Advanced Simple@L5
Параметр BVOP формата : 1
Параметр QPel формата : Нет
Параметр GMC формата : Без точки перехода
Параметр матрицы формата : Выборочная
Идентификатор кодека : XVID
Идентификатор кодека/Подсказка : XviD
Продолжительность : 1 ч. 23 м.
Битрейт : 1123 Кбит/сек
Ширина : 688 пикселей
Высота : 288 пикселей
Соотношение сторон : 2,40:1
Частота кадров : 23,976 кадра/сек
Цветовое пространство : YUV
Субдискретизация насыщенности : 4:2:0
Битовая глубина : 8 бит
Тип развёртки : Прогрессивная
Метод сжатия : С потерями
Бит/(Пиксели*Кадры) : 0.236
Размер потока : 668 Мбайт (89%)
Библиотека кодирования : XviD 73
Аудио
Идентификатор : 1
Формат : MPEG Audio
Версия формата : Version 1
Профиль формата : Layer 3
Идентификатор кодека : 55
Идентификатор кодека/Подсказка : MP3
Продолжительность : 1 ч. 23 м.
Вид битрейта : Постоянный
Битрейт : 128 Кбит/сек
Каналы : 2 канала
Частота : 48,0 КГц
Метод сжатия : С потерями
Размер потока : 76,1 Мбайт (10%)
Выравнивание : Соединение по промежуткам
Продолжительность промежутка : 42 мс. (1,00 видеокадр)
Время предзагрузки промежутка : 504 мс.
Библиотека кодирования : LAME3.99r
Настройки программы : -m s -V 4 -q 2 -lowpass 17 -b 128
Скриншоты -ДРУЗЬЯ! ПОЖАЛУЙСТА, НЕ УХОДИТЕ С РАЗДАЧИ КАК МОЖНО ДОЛЬШЕ!-
Скачать

Скачать торрент!

Как скачивать? · Что такое торрент? · Рейтинг и ограничения

Сайт не распространяет и не хранит электронные версии произведений, а лишь предоставляет доступ к создаваемому пользователями каталогу ссылок на торрент-файлы, которые содержат только списки хеш-сумм

[Профиль] [ЛС]
Показать сообщения:    
Ответить на тему

Текущее время: Сегодня 08:03

Часовой пояс: GMT + 4



Вы не можете начинать темы
Вы не можете отвечать на сообщения
Вы не можете редактировать свои сообщения
Вы не можете удалять свои сообщения
Вы не можете голосовать в опросах
Вы не можете прикреплять файлы к сообщениям
Вы не можете скачивать файлы