Бумеранг (Роза Хуснутдинова, Александр Боголюбов) [1976, мультфильм, SATRip]

Ответить на тему
 
Автор Сообщение

user ®

Стаж: 7 лет 7 месяцев

Сообщений: 20008

Пост Пост: #1 от 26-Май-2014 16:55

[Цитировать]

Бумеранг
Страна: СССР
Жанр: мультфильм
Продолжительность: 00:10:19
Год выпуска: 1976
Русские субтитры: нет
Режиссёр: Роза Хуснутдинова, Александр Боголюбов
Описание: О некоторых пороках западного образа жизни
Доп. информация: сценарист Роза Хуснутдинова
художник-постановщик Геннадий Смолянов
оператор Игорь Скидан-Босин
Семпл: http://yadi.sk/d/9vvGTfqgRJmmF
Качество: SATRip
Формат: AVI
Видео: XviD, 720х544, 25.000 fps, 1999 Kbps
Аудио: MP3, 48.0 KHz, 2 channels, 128 Kbps
Субтитры: отсутствуют
Подробные технические данные
GeneralComplete name : C:\Users\Саша\Downloads\bumerang.aviFormat : AVIFormat/Info : Audio Video InterleaveFile size : 158 MiBDuration : 10mn 19sOverall bit rate : 2 137 KbpsWriting application : VirtualDubMod 1.5.10.3 | www.virtualdub-fr.org || (build 2550/release)Writing library : VirtualDubMod build 2550/release
VideoID : 0Format : MPEG-4 VisualFormat profile : Advanced Simple@L5Format settings, BVOP : YesFormat settings, QPel : NoFormat settings, GMC : No warppointsFormat settings, Matrix : Default (H.263)Codec ID : XVIDCodec ID/Hint : XviDDuration : 10mn 19sBit rate : 1 999 KbpsWidth : 720 pixelsHeight : 544 pixelsDisplay aspect ratio : 4:3Frame rate : 25.000 fpsResolution : 8 bitsColorimetry : 4:2:0Scan type : ProgressiveBits/(Pixel*Frame) : 0.204Stream size : 148 MiB (94%)Writing library : XviD 73
AudioID : 1Format : MPEG AudioFormat version : Version 1Format profile : Layer 3Codec ID : 55Codec ID/Hint : MP3Duration : 10mn 19sBit rate mode : ConstantBit rate : 128 KbpsChannel(s) : 2 channelsSampling rate : 48.0 KHzStream size : 9.45 MiB (6%)Alignment : Aligned on interleavesInterleave, duration : 40 ms (1.00 video frame)Interleave, preload duration : 504 msWriting library : LAME3.99rEncoding settings : -m s -V 4 -q 2 -lowpass 17 -b 128
Скриншоты
Скачать

Скачать торрент!

Как скачивать? · Что такое торрент? · Рейтинг и ограничения

Сайт не распространяет и не хранит электронные версии произведений, а лишь предоставляет доступ к создаваемому пользователями каталогу ссылок на торрент-файлы, которые содержат только списки хеш-сумм

[Профиль] [ЛС]
Показать сообщения:    
Ответить на тему

Текущее время: Сегодня 20:09

Часовой пояс: GMT + 4



Вы не можете начинать темы
Вы не можете отвечать на сообщения
Вы не можете редактировать свои сообщения
Вы не можете удалять свои сообщения
Вы не можете голосовать в опросах
Вы не можете прикреплять файлы к сообщениям
Вы не можете скачивать файлы