Интимные признания китайской куртизанки / Intimate Confessions Of A Chinese Courtesan (Юэнь Чор / Yuen Chor) [1972, Гонконг, Драма, боевые искусства, DVDRip] VO

Ответить на тему
 
Автор Сообщение

user ®

Стаж: 13 лет

Сообщений: 15071

Пост Пост: #1 от 26-Май-2014 16:55

[Цитировать]

Интимные признания китайской куртизанки / Intimate Confessions Of A Chinese Courtesan
Страна: Гонконг
Жанр: Драма, боевые искусства
Год выпуска: 1972
Продолжительность: 01:26:30
Перевод: Одноголосый закадровый В.Береговых
Cубтитры: нет
Оригинальная аудиодорожка: Китайский
Режиссер: Юэнь Чор / Yuen Chor
В ролях: Лили Хо, Бетти Пэй, Юе Хуа, Тунг Лам, Гу Ман Чун, Чан Шен, Фан Мей Шенг
Описание: Негодяи похищают молодую девушку по имени Ай Ну и увозят ее в бордель. Они вынуждают ее продавать свое тело. Проходит два года. Набравшись жизненного опыта и изучив боевые искусства, Ай Ну начинает мстить всем тем, кто издевался над ней...(В.Береговых)
Доп. информация: Рип сделан с DVD 9 зоны R2 В скоре будет роздан сам DVD
Сэмпл: http://multi-up.com/976125
Качество видео: DVDRip
Формат видео: AVI
Видео: XVID, 640х272, 2,35: 1, 25.000 fps, 1678 Kbps
Аудио 1: Русский AC-3 48,0 КГц, 192 Кбит/сек, 2 ch
Аудио 2: Английский AC-3 48,0 КГц, 192 Кбит/сек, 2 ch
Аудио 3: Китайский AC-3 48,0 КГц, 192 Кбит/сек, 2 ch
MediaInfo
Общее
Полное имя : C:\Documents and Settings\Администратор\Рабочий стол\732\Intimate Confessions Of A Chinese Courtesan 1972.avi
Формат : AVI
Формат/Информация : Audio Video Interleave
Размер файла : 1,37 Гбайт
Продолжительность : 1 ч. 26 м.
Общий поток : 2265 Кбит/сек
Программа кодирования : VirtualDubMod 1.5.4.1 (build 2178/release)
Библиотека кодирования : VirtualDubMod build 2178/release
Видео
Идентификатор : 0
Формат : MPEG-4 Visual
Профиль формата : Advanced Simple@L5
Параметр BVOP формата : Нет
Параметр QPel формата : Нет
Параметр GMC формата : Без точки перехода
Параметр матрицы формата : Выборочная
Идентификатор кодека : XVID
Идентификатор кодека/Подсказка : XviD
Продолжительность : 1 ч. 26 м.
Битрейт : 1678 Кбит/сек
Ширина : 640 пикселей
Высота : 272 пикселя
Соотношение сторон : 2,35:1
Частота кадров : 25,000 кадров/сек
Цветовое пространство : YUV
Субдискретизация насыщенности : 4:2:0
Битовая глубина : 8 бит
Тип развёртки : Прогрессивная
Метод сжатия : С потерями
Бит/(Пиксели*Кадры) : 0.386
Размер потока : 1,01 Гбайт (74%)
Библиотека кодирования : XviD 64
Аудио #1
Идентификатор : 1
Формат : AC-3
Формат/Информация : Audio Coding 3
Расширение режима : CM (complete main)
Параметр Endianness формата : Big
Идентификатор кодека : 2000
Продолжительность : 1 ч. 26 м.
Вид битрейта : Постоянный
Битрейт : 192 Кбит/сек
Каналы : 2 канала
Расположение каналов : Front: L R
Частота : 48,0 КГц
Битовая глубина : 16 бит
Метод сжатия : С потерями
Размер потока : 119 Мбайт (8%)
Выравнивание : Разделение по промежуткам
Продолжительность промежутка : 96 мс. (2,40 видеокадра)
Время предзагрузки промежутка : 96 мс.
Язык : Russian
Аудио #2
Идентификатор : 2
Формат : AC-3
Формат/Информация : Audio Coding 3
Расширение режима : CM (complete main)
Параметр Endianness формата : Big
Идентификатор кодека : 2000
Продолжительность : 1 ч. 26 м.
Вид битрейта : Постоянный
Битрейт : 192 Кбит/сек
Каналы : 2 канала
Расположение каналов : Front: L R
Частота : 48,0 КГц
Битовая глубина : 16 бит
Метод сжатия : С потерями
Размер потока : 119 Мбайт (8%)
Выравнивание : Разделение по промежуткам
Продолжительность промежутка : 96 мс. (2,40 видеокадра)
Время предзагрузки промежутка : 96 мс.
Язык : English
Аудио #3
Идентификатор : 3
Формат : AC-3
Формат/Информация : Audio Coding 3
Расширение режима : CM (complete main)
Параметр Endianness формата : Big
Идентификатор кодека : 2000
Продолжительность : 1 ч. 26 м.
Вид битрейта : Постоянный
Битрейт : 192 Кбит/сек
Каналы : 2 канала
Расположение каналов : Front: L R
Частота : 48,0 КГц
Битовая глубина : 16 бит
Метод сжатия : С потерями
Размер потока : 119 Мбайт (8%)
Выравнивание : Разделение по промежуткам
Продолжительность промежутка : 96 мс. (2,40 видеокадра)
Время предзагрузки промежутка : 96 мс.
Язык : Chinese
Скриншот c названием фильма Скриншоты
Скачать

Скачать торрент! Интимные признания китайской куртизанки / Intimate Confessions Of A Chinese Courtesan (Юэнь Чор / Yuen Chor) [1972, Гонконг, Драма, боевые искусства, DVDRip] VO

Как скачивать? · Что такое торрент? · Рейтинг и ограничения

Сайт не распространяет и не хранит электронные версии произведений, а лишь предоставляет доступ к создаваемому пользователями каталогу ссылок на торрент-файлы, которые содержат только списки хеш-сумм

[Профиль] [ЛС]
Показать сообщения:    
Ответить на тему

Текущее время: Сегодня 11:48

Часовой пояс: GMT + 4



Вы не можете начинать темы
Вы не можете отвечать на сообщения
Вы не можете редактировать свои сообщения
Вы не можете удалять свои сообщения
Вы не можете голосовать в опросах
Вы не можете прикреплять файлы к сообщениям
Вы не можете скачивать файлы