Поверь в мечту / Yakeen (Бридж / Brij) [1969, Индия, Боевик, DVDRip] MVO (Формат АВ)

Ответить на тему
 
Автор Сообщение

user ®

Стаж: 13 лет

Сообщений: 15070

Пост Пост: #1 от 26-Май-2014 16:55

[Цитировать]

Поверь в мечту / Yakeen
-Страна: Индия
Жанр: Боевик
Год выпуска: 1969
Продолжительность: 02:19:37-Перевод: Профессиональный (многоголосый закадровый) - Формат АВ
Субтитры: Нет--Режиссер: Бридж / Brij-В ролях: Дхармендра, Шармила Тагор, Дэвид Абрахам, Камини Каушал--Описание: История Раджеша Шарма, который работает на правительство Индии, ведя разработку сверхсекретного проекта. Захватывающий сюжет фильма основан на попытках Раджеша помешать коварным планам вражеской страны, которая засылает шпионов, чтобы те саботировали его проект. Динамит, стратегические планы, таинственные злодеи и необъяснимые убийства делают сюжет захватывающим. Один из первых детективов о шпионаже. Джеймс Бонд отдыхает.-- | --Качество видео: DVDRip
Формат видео: AVI-Видео: XviD, 576x432, 29,970 fps, 1332 Kbps
Аудио: MP3, 48 KHz, 2ch, 128 Kbps--Сэмпл / Sample--Риппер, сведение звука: soso4eg, Алёна-- -
-
Скриншоты
-
MI
Общее
Полное имя : C:\INDIYA\POVER.V.MECHTU.1969.DVDRip.XviD-soso4eg.avi
Формат : AVI
Формат/Информация : Audio Video Interleave
Размер файла : 1,44 Гбайт
Продолжительность : 2 ч. 19 м.
Общий поток : 1472 Кбит/сек
Название фильма : POVER.V.MECHTU.1969.DVDRip.XviD-soso4eg
Режиссёр : soso4eg
Программа кодирования : VirtualDubMod 1.5.10.3 | www.virtualdub-fr.org || (build 2550/release)
Правообладатель : специально для BitTorrent трекер *** (ex torrents.ru)
Примечание : пер. проф. многогол.
Видео
Идентификатор : 0
Формат : MPEG-4 Visual
Профиль формата : Advanced Simple@L5
Параметр BVOP формата : 2
Параметр QPel формата : Нет
Параметр GMC формата : Без точки перехода
Параметр матрицы формата : Default (H.263)
Идентификатор кодека : XVID
Идентификатор кодека/Подсказка : XviD
Продолжительность : 2 ч. 19 м.
Битрейт : 1332 Кбит/сек
Ширина : 576 пикселей
Высота : 432 пикселя
Соотношение сторон : 4:3
Частота кадров : 29,970 кадров/сек
Цветовое пространство : YUV
Субдискретизация насыщенности : 4:2:0
Битовая глубина : 8 бит
Тип развёртки : Прогрессивная
Метод сжатия : С потерями
Бит/(Пиксели*Кадры) : 0.179
Размер потока : 1,30 Гбайт (91%)
Библиотека кодирования : XviD 1.2.1 (UTC 2008-12-04)
Аудио
Идентификатор : 1
Формат : MPEG Audio
Версия формата : Version 1
Профиль формата : Layer 3
Идентификатор кодека : 55
Идентификатор кодека/Подсказка : MP3
Продолжительность : 2 ч. 19 м.
Вид битрейта : Постоянный
Битрейт : 128 Кбит/сек
Каналы : 2 канала
Частота : 48,0 КГц
Метод сжатия : С потерями
Размер потока : 128 Мбайт (9%)
Выравнивание : Соединение по промежуткам
Продолжительность промежутка : 33 мс. (1,00 видеокадр)
Время предзагрузки промежутка : 504 мс.
Библиотека кодирования : LAME3.99r
Настройки программы : -m s -V 4 -q 2 -lowpass 17 -b 128

-
-
Скачать

Скачать торрент! Поверь в мечту / Yakeen (Бридж / Brij) [1969, Индия, Боевик, DVDRip] MVO (Формат АВ)

Как скачивать? · Что такое торрент? · Рейтинг и ограничения

Сайт не распространяет и не хранит электронные версии произведений, а лишь предоставляет доступ к создаваемому пользователями каталогу ссылок на торрент-файлы, которые содержат только списки хеш-сумм

[Профиль] [ЛС]
Показать сообщения:    
Ответить на тему

Текущее время: Сегодня 15:17

Часовой пояс: GMT + 4



Вы не можете начинать темы
Вы не можете отвечать на сообщения
Вы не можете редактировать свои сообщения
Вы не можете удалять свои сообщения
Вы не можете голосовать в опросах
Вы не можете прикреплять файлы к сообщениям
Вы не можете скачивать файлы