Убийственно вкусно / Смертельные деликатесы / Shuang shi ji / Deadly Delicious (Чжао Тайню / Zhao Tianyu) [2008, Китай, Драма, детектив, DVDRip] + Sub Rus

Ответить на тему
 
Автор Сообщение

user ®

Стаж: 11 лет

Сообщений: 15151

Пост Пост: #1 от 26-Май-2014 10:35

[Цитировать]

Убийственно вкусно / Смертельные деликатесы / Shuang shi ji / Deadly Delicious
Страна: Китай
Жанр: Драма, детектив
Год выпуска: 2008
Продолжительность: 01:37:36
Перевод: Субтитры
Cубтитры: русские
Оригинальная аудиодорожка: мандаринский
Режиссер: Чжао Тайню / Zhao Tianyu
В ролях: Френсис Нг, Нань Юй, Цзян Иянь, Сяомин Ванг, Вэй Ванг
Описание: История о гурмане, влюбленном в двух разных женщин, которые медленно отравляют его.
Доп. информация: Исходник DVD-5 R1 (СПАСИБО! wertrist)
Сэмпл: http://multi-up.com/975884
Качество видео: DVDRip
Формат видео: AVI
Видео: XviD build 50, 704x384 (1.83:1), 23.976 fps, 1681 kbps avg
Аудио: Мандаринский AC3 Dolby Digital, 48 kHz, 3/2 (L,C,R,l,r) + LFE ch, 448.00 kbps avg
Формат субтитров: softsub (SRT)
MediaInfo
General
Complete name : D:\Ubiijstvenno.vkusno.2008.XviD.DVDRip-Dego\Ubiijstvenno.vkusno.2008.XviD.DVDRip-Dego.avi
Format : AVI
Format/Info : Audio Video Interleave
File size : 1.46 GiB
Duration : 1h 37mn
Overall bit rate : 2 139 Kbps
Writing application : VirtualDubMod 1.5.10.2 (build 2540/release)
Writing library : VirtualDubMod build 2540/release
Video
ID : 0
Format : MPEG-4 Visual
Format profile : AdvancedSimple@L5
Format settings, BVOP : Yes
Format settings, QPel : No
Format settings, GMC : No warppoints
Format settings, Matrix : Default (MPEG)
Codec ID : XVID
Codec ID/Hint : XviD
Duration : 1h 37mn
Bit rate : 1 682 Kbps
Width : 704 pixels
Height : 384 pixels
Display aspect ratio : 16/9
Frame rate : 23.976 fps
Resolution : 24 bits
Colorimetry : 4:2:0
Scan type : Progressive
Bits/(Pixel*Frame) : 0.259
Stream size : 1.15 GiB (79%)
Writing library : XviD 1.2.1 (UTC 2008-12-04)
Audio
ID : 1
Format : AC-3
Format/Info : Audio Coding 3
Codec ID : 2000
Duration : 1h 37mn
Bit rate mode : Constant
Bit rate : 448 Kbps
Channel(s) : 6 channels
Channel positions : Front: L C R, Surround: L R, LFE
Sampling rate : 48.0 KHz
Stream size : 313 MiB (21%)
Alignment : Split accross interleaves
Interleave, duration : 42 ms (1.00 video frame)
Interleave, preload duration : 500 ms
Скриншоты Фрагмент субтитров
32
00:07:04,197 --> 00:07:06,486
Если ты не будешь вынуждать меня, то мне
не придется плакать.
33
00:07:53,120 --> 00:07:53,950
Коко
34
00:07:54,913 --> 00:07:55,613
Садись
35
00:07:56,706 --> 00:07:57,786
Давай, садись.
36
00:07:58,250 --> 00:07:59,364
Мы тебя довезем до дома.
37
00:08:01,587 --> 00:08:03,745
Коко, не пей больше.
38
00:08:04,131 --> 00:08:05,505
Держись
39
00:08:05,590 --> 00:08:07,251
Пусть пьет, это нормально.
40
00:08:07,551 --> 00:08:09,710
Как ты можешь?! Ей нельзя пить.
41
00:08:10,428 --> 00:08:10,962
Давай!
42
00:08:11,013 --> 00:08:12,175
Вот, я выпью с тобой.
43
00:08:16,726 --> 00:08:18,137
Ну ты даешь!
44
00:08:19,395 --> 00:08:21,056
Ты правда думаешь, что алкоголем
можно решить проблемы?
45
00:08:21,272 --> 00:08:23,265
Их можно решить, если найти того парня.
46
00:08:23,858 --> 00:08:26,231
Эй, ты же полицейский. Так почему ты ей
не поможешь?
47
00:08:26,986 --> 00:08:29,691
Я полицейский. Я ловлю плохих парней,
а не кого попало....
48
00:08:31,825 --> 00:08:32,738
До дна!
49
00:08:34,411 --> 00:08:35,275
Давай!До дна!
50
00:08:35,327 --> 00:08:37,487
Давай! до дна! Пей, пей!
51
00:08:37,871 --> 00:08:39,449
Давай!До дна! Будем здоровы!
52
00:08:39,540 --> 00:08:40,454
Давай! До дна!
53
00:09:40,851 --> 00:09:41,632
Проснулась?
54
00:09:45,355 --> 00:09:46,517
Где ты был?
55
00:09:53,279 --> 00:09:57,692
Скажи что-нибудь....Разве ты не знал,
что я ждала тебя?
56
00:10:03,831 --> 00:10:05,623
Говори! Где ты был?
57
00:10:36,280 --> 00:10:38,403
Звонит Янцзи.....
58
00:10:43,120 --> 00:10:44,150
Поешь.
59
00:10:46,206 --> 00:10:48,911
Горячо.Как тебе?
60
00:10:52,462 --> 00:10:53,292
Твой телефон.
61
00:10:55,256 --> 00:10:58,791
Почему ты не отвечаешь? он звонит...
Скачать

Скачать торрент! Убийственно вкусно / Смертельные деликатесы / Shuang shi ji / Deadly Delicious (Чжао Тайню / Zhao Tianyu) [2008, Китай, Драма, детектив, DVDRip] + Sub Rus

Как скачивать? · Что такое торрент? · Рейтинг и ограничения

Сайт не распространяет и не хранит электронные версии произведений, а лишь предоставляет доступ к создаваемому пользователями каталогу ссылок на торрент-файлы, которые содержат только списки хеш-сумм

[Профиль] [ЛС]
Показать сообщения:    
Ответить на тему

Текущее время: Сегодня 14:09

Часовой пояс: GMT + 4



Вы не можете начинать темы
Вы не можете отвечать на сообщения
Вы не можете редактировать свои сообщения
Вы не можете удалять свои сообщения
Вы не можете голосовать в опросах
Вы не можете прикреплять файлы к сообщениям
Вы не можете скачивать файлы