Ржевский против Наполеона (Марюс Вайсберг) [2012, комедия, HDRip-AVC]

Ответить на тему
 
Автор Сообщение

user ®

Стаж: 7 лет 7 месяцев

Сообщений: 20008

Пост Пост: #1 от 26-Май-2014 10:35

[Цитировать]

Ржевский против Наполеона- Жанр: комедия
Год выпуска: 2012
Продолжительность: 01:23:08-Режиссёр: Марюс Вайсберг-В ролях: Павел Деревянко, Владимир Зеленский, Светлана Ходченкова, Михаил Ефремов, Марат Башаров, Евгений Кошевой, Жан-Клод Ван Дамм, Анна Семенович, Анфиса Чехова, Михаил Галустян-Описание: Чтобы развеять скуку, Наполеон Бонапарт затеял мировую войну. Не пропуская ни одной юбки, он оказывается со своей армией у ворот Первопрестольной. Русские полководцы решают внедрить к нему неприступную красавицу, la femme fatal, чтобы отвлечь узурпатора от захватнической деятельности. Только какая настоящая женщина устоит перед обаянием этого великого бабника? Ненастоящая!!! В смысле - переодетый мужчина! И такой мужчина есть - поручик Ржевский...-Сэмпл: http://multi-up.com/975734-Качество видео: HDRip-AVC
Формат видео: MKV
Видео кодек: H.264
Аудио кодек: AC-3
Видео: 784x328 (2.35:1), 23.976 fps, 2 050 Kbps (0.332 bit/pixel)
Аудио: AC-3, 48.0 KHz, 6 ch, 448 Kbps, CBR

MediaInfo/Log
-
x264 log
raw [info]: 760x318p 1:1 @ 24000/1001 fps (cfr)
x264 [info]: using SAR=1/1
x264 [info]: using cpu capabilities: MMX2 SSE2Fast SSSE3 SSE4.2 AVX
x264 [info]: profile Main, level 4.1
x264 [info]: frame I:1940 Avg QP:17.34 size: 51174
x264 [info]: frame P:29027 Avg QP:21.58 size: 13469
x264 [info]: frame B:88648 Avg QP:25.34 size: 2818
x264 [info]: consecutive B-frames: 3.6% 3.6% 11.2% 33.9% 14.4% 29.5% 2.0% 0.8% 0.4% 0.2% 0.3%
x264 [info]: mb I I16..4: 9.0% 0.0% 91.0%
x264 [info]: mb P I16..4: 14.2% 0.0% 0.0% P16..4: 70.3% 0.0% 0.0% 0.0% 0.0% skip:15.5%
x264 [info]: mb B I16..4: 1.8% 0.0% 0.0% B16..8: 25.8% 0.0% 0.0% direct: 9.5% skip:62.9% L0:25.2% L1:35.0% BI:39.8%
x264 [info]: final ratefactor: 20.30
x264 [info]: direct mvs spatial:98.7% temporal:1.3%
x264 [info]: coded y,uvDC,uvAC intra: 77.4% 76.3% 49.3% inter: 21.0% 14.1% 2.4%
x264 [info]: i16 v,h,dc,p: 34% 20% 29% 16%
x264 [info]: i4 v,h,dc,ddl,ddr,vr,hd,vl,hu: 23% 17% 10% 7% 8% 9% 8% 9% 9%
x264 [info]: i8c dc,h,v,p: 46% 19% 27% 8%
x264 [info]: Weighted P-Frames: Y:5.5% UV:2.0%
x264 [info]: kb/s:1186.66
x264 [total]: encoded 119615 frames, 42.38 fps, 1186.66 kb/s
...last pass...
avs4x264.exe: -L x264_64.exe --pass 2 --bitrate 1186 --preset medium --level 4.1 --ref 11 --aq-mode 2 --deblock -1:-1 --merange 48 --bframes 10 --direct auto --b-adapt 2 --trellis 2 --no-fast-pskip --vbv-maxrate 14000 --vbv-bufsize 14000 --subme 11 --me umh --rc-lookahead 60 --keyint 240 --sar 1:1 --stats "C:\Temp\0002.log" --output "C:\Temp\0002.264" "C:\Temp\0002.avs"
raw [info]: 760x318p 1:1 @ 24000/1001 fps (cfr)
x264 [info]: using SAR=1/1
x264 [info]: using cpu capabilities: MMX2 SSE2Fast SSSE3 SSE4.2 AVX
x264 [info]: profile High, level 4.1
x264 [info]: frame I:1940 Avg QP:17.98 size: 52633
x264 [info]: frame P:29027 Avg QP:22.28 size: 12814
x264 [info]: frame B:88648 Avg QP:26.66 size: 2995
x264 [info]: consecutive B-frames: 3.6% 3.6% 11.2% 33.9% 14.4% 29.5% 2.0% 0.8% 0.4% 0.2% 0.3%
x264 [info]: mb I I16..4: 3.6% 59.2% 37.3%
x264 [info]: mb P I16..4: 0.5% 6.9% 2.2% P16..4: 31.8% 33.5% 15.8% 0.0% 0.0% skip: 9.4%
x264 [info]: mb B I16..4: 0.1% 1.0% 0.2% B16..8: 32.3% 15.5% 3.6% direct: 3.4% skip:43.9% L0:40.1% L1:44.2% BI:15.7%
x264 [info]: 8x8 transform intra:68.7% inter:56.5%
x264 [info]: direct mvs spatial:92.9% temporal:7.1%
x264 [info]: coded y,uvDC,uvAC intra: 90.9% 86.9% 62.5% inter: 19.2% 13.8% 3.5%
x264 [info]: i16 v,h,dc,p: 35% 13% 4% 49%
x264 [info]: i8 v,h,dc,ddl,ddr,vr,hd,vl,hu: 11% 8% 4% 10% 14% 14% 13% 13% 13%
x264 [info]: i4 v,h,dc,ddl,ddr,vr,hd,vl,hu: 13% 9% 4% 9% 14% 14% 12% 12% 13%
x264 [info]: i8c dc,h,v,p: 38% 21% 23% 18%
x264 [info]: Weighted P-Frames: Y:6.1% UV:2.0%
x264 [info]: ref P L0: 53.0% 15.5% 11.7% 5.7% 3.4% 3.3% 2.2% 1.5% 1.1% 1.2% 1.1% 0.2% 0.0%
x264 [info]: ref B L0: 83.5% 6.8% 4.0% 1.7% 1.4% 0.9% 0.8% 0.5% 0.4% 0.2%
x264 [info]: ref B L1: 94.4% 5.6%
x264 [info]: kb/s:1185.84
x264 [total]: encoded 119615 frames, 7.23 fps, 1185.84 kb/s
-Общее
Уникальный идентификатор : 252167054137948243291005746556437473579 (0xBDB59BA981C0851AB694B2BFE3AF292B)
Полное имя : D:\Rzhevskij.protiv.Napoleona.2012.HDRip_by_Danres.mkv
Формат : Matroska
Версия формата : Version 2
Размер файла : 1,45 Гбайт
Продолжительность : 1 ч. 23 м.
Общий поток : 2499 Кбит/сек
Дата кодирования : UTC 2014-05-23 23:35:48
Программа кодирования : mkvmerge v6.1.0 ('Old Devil') built on Mar 4 2013 09:10:42
Библиотека кодирования : libebml v1.3.0 + libmatroska v1.4.0
Видео
Идентификатор : 1
Формат : AVC
Формат/Информация : Advanced Video Codec
Профиль формата : High@L4.1
Параметр CABAC формата : Да
Параметр ReFrames формата : 11 кадров
Идентификатор кодека : V_MPEG4/ISO/AVC
Продолжительность : 1 ч. 23 м.
Битрейт : 2050 Кбит/сек
Ширина : 784 пикселя
Высота : 328 пикселей
Соотношение сторон : 2,40:1
Режим частоты кадров : Постоянный
Частота кадров : 23,976 кадра/сек
Цветовое пространство : YUV
Субдискретизация насыщенности : 4:2:0
Битовая глубина : 8 бит
Тип развёртки : Прогрессивная
Бит/(Пиксели*Кадры) : 0.332
Размер потока : 1,16 Гбайт (80%)
Библиотека кодирования : x264 core 130 r2273 b3065e6
Настройки программы : cabac=1 / ref=11 / deblock=1:-2:-2 / analyse=0x3:0x113 / me=umh / subme=11 / psy=1 / psy_rd=1.00:0.05 / mixed_ref=1 / me_range=48 / chroma_me=1 / trellis=2 / 8x8dct=1 / cqm=0 / deadzone=21,11 / fast_pskip=0 / chroma_qp_offset=-3 / threads=6 / lookahead_threads=1 / sliced_threads=0 / nr=0 / decimate=0 / interlaced=0 / bluray_compat=0 / constrained_intra=0 / bframes=10 / b_pyramid=2 / b_adapt=2 / b_bias=0 / direct=3 / weightb=1 / open_gop=0 / weightp=2 / keyint=240 / keyint_min=24 / scenecut=40 / intra_refresh=0 / rc_lookahead=40 / rc=2pass / mbtree=1 / bitrate=2050 / ratetol=1.0 / qcomp=0.60 / qpmin=0 / qpmax=69 / qpstep=4 / cplxblur=20.0 / qblur=0.5 / ip_ratio=1.40 / aq=1:1.00
Default : Да
Forced : Нет
Аудио
Идентификатор : 2
Формат : AC-3
Формат/Информация : Audio Coding 3
Расширение режима : CM (complete main)
Параметр Endianness формата : Big
Идентификатор кодека : A_AC3
Продолжительность : 1 ч. 23 м.
Вид битрейта : Постоянный
Битрейт : 448 Кбит/сек
Каналы : 6 каналов
Расположение каналов : Front: L C R, Side: L R, LFE
Частота : 48,0 КГц
Битовая глубина : 16 бит
Метод сжатия : С потерями
Размер потока : 266 Мбайт (18%)
Default : Да
Forced : Нет
Скриншоты
Скачать

Скачать торрент!

Как скачивать? · Что такое торрент? · Рейтинг и ограничения

Сайт не распространяет и не хранит электронные версии произведений, а лишь предоставляет доступ к создаваемому пользователями каталогу ссылок на торрент-файлы, которые содержат только списки хеш-сумм

[Профиль] [ЛС]
Показать сообщения:    
Ответить на тему

Текущее время: Сегодня 10:00

Часовой пояс: GMT + 4



Вы не можете начинать темы
Вы не можете отвечать на сообщения
Вы не можете редактировать свои сообщения
Вы не можете удалять свои сообщения
Вы не можете голосовать в опросах
Вы не можете прикреплять файлы к сообщениям
Вы не можете скачивать файлы