Академия вампиров / Vampire Academy (Марк Уотерс / Mark Waters) [2014, США, ужасы, фэнтези, боевик, BDRip] MVO

Ответить на тему
 
Автор Сообщение

user ®

Стаж: 7 лет 7 месяцев

Сообщений: 20008

Пост Пост: #1 от 25-Май-2014 23:25

[Цитировать]

Академия вампиров / Vampire Academy«Blood is family. Blood is pain. And blood is death»- Год выхода: 2014
Жанр: ужасы, фэнтези, боевик, комедия, детектив
Страна: США / Angry Films, Kintop Pictures, Preger Entertainment
Продолжительность: 01:44:22
Перевод: Любительский (многоголосый, закадровый) BaibaKo
Субтитры: нет-Режиссер: Марк Уотерс / Mark Waters-В ролях: Зои Дойч, Люси Фрай, Данила Козловский, Доминик Шервуд, Сара Хайланд, Гэбриел Бирн, Сами Гэйл, Ольга Куриленко, Джоэли Ричардсон, Камерон Монахэн, Эшли Чарльз, Клер Фой, Доминик Типпер, Эдвард Холкрофт, Бронте Норман-Террелл, Крис Мэйсон, Бен Пил, Бен Пил, Рамон Тикарам, Гарри Брэдшоу, Шелли Лонгуорт-Описание: Мало кому известно, что в Америке, в самом сердце Монтаны, имеется настоящая Академия, где вампиры обучаются высокому искусству магии. И почти никто не знает, что в мире идут кровавые вампирские войны и расе мороев противостоит жестокое племя стригоев, вампиров, переступивших черту закона и не гнушающихся убийством. Даже стены Академии, святая святых науки, не слишком надежная защита от происков темных сил. Юная моройская принцесса Лисса и Роза, ее подруга и верный страж, однажды убеждаются в этом, оказавшись в эпицентре грозных событий.- -Сэмпл: http://multi-up.com/976058-Качество: BDRip [BDRemux / 1080p / кинозал]
Формат: AVI
Видео: 688x288 (2.39:1), 23.976 fps, XviD build 73 ~860 kbps avg, 0.18 bit/pixel
Аудио: 48 kHz, MPEG Layer 3, 2 ch, ~128.00 kbps avg
-Media Info
Формат                                   : AVI
Формат/Информация                        : Audio Video Interleave
Размер файла                             : 745 Мбайт
Продолжительность                        : 1 ч. 44 м.
Общий поток                              : 998 Кбит/сек
Программа кодирования                    : VirtualDubMod 1.5.10.3 | www.virtualdub-fr.org || (build 2550/release)
Библиотека кодирования                   : VirtualDubMod build 2550/release
Видео
Идентификатор                            : 0
Формат                                   : MPEG-4 Visual
Профиль формата                          : Advanced Simple@L5
Параметр BVOP формата                    : 1
Параметр QPel формата                    : Нет
Параметр GMC формата                     : Без точки перехода
Параметр матрицы формата                 : Выборочная
Идентификатор кодека                     : XVID
Идентификатор кодека/Подсказка           : XviD
Продолжительность                        : 1 ч. 44 м.
Битрейт                                  : 861 Кбит/сек
Ширина                                   : 688 пикселей
Высота                                   : 288 пикселей
Соотношение сторон                       : 2,40:1
Частота кадров                           : 23,976 кадра/сек
Цветовое пространство                    : YUV
Субдискретизация насыщенности            : 4:2:0
Битовая глубина                          : 8 бит
Тип развёртки                            : Прогрессивная
Метод сжатия                             : С потерями
Бит/(Пиксели*Кадры)                      : 0.181
Размер потока                            : 643 Мбайт (86%)
Библиотека кодирования                   : XviD 73
Аудио
Идентификатор                            : 1
Формат                                   : MPEG Audio
Версия формата                           : Version 1
Профиль формата                          : Layer 3
Идентификатор кодека                     : 55
Идентификатор кодека/Подсказка           : MP3
Продолжительность                        : 1 ч. 44 м.
Вид битрейта                             : Постоянный
Битрейт                                  : 128 Кбит/сек
Каналы                                   : 2 канала
Частота                                  : 48,0 КГц
Метод сжатия                             : С потерями
Размер потока                            : 95,6 Мбайт (13%)
Выравнивание                             : Соединение по промежуткам
Продолжительность промежутка             : 42  мс. (1,00 видеокадр)
Время предзагрузки промежутка            : 504  мс.
Скриншоты
Скачать

Скачать торрент!

Как скачивать? · Что такое торрент? · Рейтинг и ограничения

Сайт не распространяет и не хранит электронные версии произведений, а лишь предоставляет доступ к создаваемому пользователями каталогу ссылок на торрент-файлы, которые содержат только списки хеш-сумм

[Профиль] [ЛС]
Показать сообщения:    
Ответить на тему

Текущее время: Сегодня 12:30

Часовой пояс: GMT + 4



Вы не можете начинать темы
Вы не можете отвечать на сообщения
Вы не можете редактировать свои сообщения
Вы не можете удалять свои сообщения
Вы не можете голосовать в опросах
Вы не можете прикреплять файлы к сообщениям
Вы не можете скачивать файлы