Софи / Софи и Шеба / Sophie / Sophie and Sheba / Sophie & Shiba (Лейф Бристоу / Leif Bristow) [2010, Канада, семейный, BDRip 720p] 2х MVO + Original Eng

Ответить на тему
 
Автор Сообщение

user ®

Стаж: 7 лет 7 месяцев

Сообщений: 20008

Пост Пост: #1 от 25-Май-2014 20:15

[Цитировать]

Софи / Софи и Шеба / Sophie / Sophie and Sheba / Sophie & Shiba
Страна: Канада
Жанр: семейный
Год выпуска: 2010
Продолжительность: 01:43:41
Перевод: Профессиональный (многоголосый закадровый) СТС
Перевод: Профессиональный (многоголосый закадровый) Disney
Cубтитры: нет
Оригинальная аудиодорожка: английский
Режиссер: Лейф Бристоу / Leif Bristow
В ролях: Бриттани Бристоу (Софи), Эрика Дюранс (Наталия), Туре Райфенштайн (Магнус), Огастас Прю (Блейк), Дебора Кара Унгер (Тина Брэдшоу), Джон Рис-Дэвис (Алистер Уинстон)
Описание: Софи с детства проводила очень много времени в зоопарке, которым управляли ее родители, и в тоже время всегда мечтала поступить учиться в престижную балетную школу. Но чтобы оплатить дорогостоящее обучение, родители Софи вынуждены продать слониху Шебу, верного друга девушки, в странствующий цирк...
Сэмпл: http://multi-up.com/975899
Тип релиза: BDRip 720p
Контейнер: MKV
Видео: AVC, 1280x688 (1.860), 24.000 fps, 4 528 Kbps (0.209 bit/pixel)
Аудио 1: AC-3, 48.0 KHz, 2 ch, 192 Kbps, CBR (Russian) - СТС
Аудио 2: AC-3, 48.0 KHz, 2 ch, 192 Kbps, CBR (Russian) - Disney
Аудио 3: DTS, 48.0 KHz, 6 ch, 1 510 Kbps, CBR (English)
MediaInfo
Общее
Уникальный идентификатор : 236663873095338115346298507630580614094 (0xB20BCDD29C0DC9BE801767A1EC8843CE)
Полное имя : K:\Sophie.and.Sheba.2010.720p.BluRay.x264-iFPD.mkv
Формат : Matroska
Версия формата : Version 2
Размер файла : 4,65 Гбайт
Продолжительность : 1 ч. 43 м.
Общий поток : 6424 Кбит/сек
Дата кодирования : UTC 2014-05-25 05:26:55
Программа кодирования : mkvmerge v6.1.0 ('Old Devil') built on Mar 2 2013 14:32:37
Библиотека кодирования : libebml v1.3.0 + libmatroska v1.4.0
Видео
Идентификатор : 1
Формат : AVC
Формат/Информация : Advanced Video Codec
Профиль формата : High@L4.1
Параметр CABAC формата : Да
Параметр ReFrames формата : 5 кадров
Идентификатор кодека : V_MPEG4/ISO/AVC
Продолжительность : 1 ч. 43 м.
Битрейт : 4528 Кбит/сек
Ширина : 1280 пикселей
Высота : 688 пикселей
Соотношение сторон : 1,85:1
Режим частоты кадров : Постоянный
Частота кадров : 24,000 кадра/сек
Цветовое пространство : YUV
Субдискретизация насыщенности : 4:2:0
Битовая глубина : 8 бит
Тип развёртки : Прогрессивная
Бит/(Пиксели*Кадры) : 0.214
Размер потока : 3,19 Гбайт (69%)
Заголовок : Sophie & Shiba / Sophie and Sheba (2010)
Библиотека кодирования : x264 core 129 r2245 bc13772
Настройки программы : cabac=1 / ref=5 / deblock=1:0:0 / analyse=0x3:0x113 / me=umh / subme=7 / psy=1 / psy_rd=1.00:0.00 / mixed_ref=1 / me_range=16 / chroma_me=1 / trellis=1 / 8x8dct=1 / cqm=0 / deadzone=21,11 / fast_pskip=0 / chroma_qp_offset=-2 / threads=12 / lookahead_threads=2 / sliced_threads=0 / nr=0 / decimate=1 / interlaced=0 / bluray_compat=0 / constrained_intra=0 / bframes=3 / b_pyramid=2 / b_adapt=2 / b_bias=0 / direct=3 / weightb=1 / open_gop=0 / weightp=2 / keyint=250 / keyint_min=24 / scenecut=40 / intra_refresh=0 / rc_lookahead=50 / rc=2pass / mbtree=1 / bitrate=4528 / ratetol=1.0 / qcomp=0.60 / qpmin=0 / qpmax=69 / qpstep=4 / cplxblur=20.0 / qblur=0.5 / ip_ratio=1.40 / aq=1:1.00
Default : Да
Forced : Нет
Аудио #1
Идентификатор : 2
Формат : AC-3
Формат/Информация : Audio Coding 3
Расширение режима : CM (complete main)
Параметр Endianness формата : Big
Идентификатор кодека : A_AC3
Продолжительность : 1 ч. 43 м.
Вид битрейта : Постоянный
Битрейт : 192 Кбит/сек
Каналы : 2 канала
Расположение каналов : Front: L R
Частота : 48,0 КГц
Битовая глубина : 16 бит
Метод сжатия : С потерями
Размер потока : 142 Мбайт (3%)
Заголовок : Профессиональный (многоголосый закадровый) СТС
Язык : Russian
Default : Да
Forced : Нет
Аудио #2
Идентификатор : 3
Формат : AC-3
Формат/Информация : Audio Coding 3
Расширение режима : CM (complete main)
Параметр Endianness формата : Big
Идентификатор кодека : A_AC3
Продолжительность : 1 ч. 43 м.
Вид битрейта : Постоянный
Битрейт : 192 Кбит/сек
Каналы : 2 канала
Расположение каналов : Front: L R
Частота : 48,0 КГц
Битовая глубина : 16 бит
Метод сжатия : С потерями
Размер потока : 142 Мбайт (3%)
Заголовок : Профессиональный (многоголосый закадровый) Disney
Язык : Russian
Default : Нет
Forced : Нет
Аудио #3
Идентификатор : 4
Формат : DTS
Формат/Информация : Digital Theater Systems
Режим : 16
Параметр Endianness формата : Big
Идентификатор кодека : A_DTS
Продолжительность : 1 ч. 43 м.
Вид битрейта : Постоянный
Битрейт : 1509 Кбит/сек
Каналы : 6 каналов
Расположение каналов : Front: L C R, Side: L R, LFE
Частота : 48,0 КГц
Битовая глубина : 24 бит
Метод сжатия : С потерями
Размер потока : 1,09 Гбайт (23%)
Заголовок : DTS
Язык : English
Default : Нет
Forced : Нет
Скриншоты Торрент перезалит 25.05.14 - добавлена дорожка с озвучкой Disney
Скачать

Скачать торрент!

Как скачивать? · Что такое торрент? · Рейтинг и ограничения

Сайт не распространяет и не хранит электронные версии произведений, а лишь предоставляет доступ к создаваемому пользователями каталогу ссылок на торрент-файлы, которые содержат только списки хеш-сумм

[Профиль] [ЛС]
Показать сообщения:    
Ответить на тему

Текущее время: Сегодня 16:34

Часовой пояс: GMT + 4



Вы не можете начинать темы
Вы не можете отвечать на сообщения
Вы не можете редактировать свои сообщения
Вы не можете удалять свои сообщения
Вы не можете голосовать в опросах
Вы не можете прикреплять файлы к сообщениям
Вы не можете скачивать файлы