Хоббит: Пустошь Смауга / The Hobbit: The Desolation of Smaug (Питер Джексон / Peter Jackson) [2013, США, Новая Зеландия, фэнтези, приключения, BDRip 1080p] Dub (Rus, Ukr) + AVO (Сербин) + Original (Eng) + Sub (Rus, Ukr, Eng)

Ответить на тему
 
Автор Сообщение

user ®

Стаж: 7 лет 7 месяцев

Сообщений: 20008

Пост Пост: #1 от 25-Май-2014 15:10

[Цитировать]

Хоббит: Пустошь Смауга
Страна: США, Новая Зеландия
Студия: Metro-Goldwyn-Mayer (MGM), New Line Cinema, WingNut Films
Жанр: фэнтези, приключения
Год выпуска: 2013
Продолжительность: 02:41:17
Перевод 1: Профессиональный (дублированный) [BD CEE]
Перевод 2: Авторский (одноголосый закадровый) [Ю. Сербин]
Перевод 3: Профессиональный (дублированный) [Ukr BD CEE]
Оригинальная аудиодорожка: английская
Cубтитры: русские (форсированные, полные (4 вида)), украинские (форсированные, полные), английские (полные (2 вида), SDH (2 вида), SDH цветные)
Режиссер: Питер Джексон / Peter Jackson
В ролях: Иэн МакКеллен, Мартин Фриман, Ричард Армитейдж, Кен Стотт, Грэм МакТавиш, Уильям Кирхер, Джеймс Незбитт, Стивен Хантер, Дин О'Горман, Эйдан Тёрнер, Джон Коллен, Питер Хэмблтон, Джед Брофи, Марк Хэдлоу, Орландо Блум, Евангелина Лилли, Ли Пейс, Кейт Бланшетт, Бенедикт Камбербэтч, Микаэл Персбрандт, Сильвестр МакКой, Люк Эванс, Стивен Фрай, Джон Белл, Ману Беннетт, Лоуренс Макор, Бен Митчелл, Стивен Ур, Крэйг Холл, Робин Керр, Марк Митчинсон, Сара Пирс, Ник Блэйк, Даллас Барнетт, Кэти Джексон, Ричард Уайтсайд, Грег Эллис, Рэй Хенвуд
Описание: Вторая часть трилогии «Хоббит» Питера Джексона, основанной на произведении Джона Рональда Руэла Толкина. После успешного перехода через Туманные горы Торин и компания вынуждены обратиться за помощью к могучему незнакомцу, прежде чем отправиться в опасное Лихолесье без волшебника. Их компания обязана завершить своё путешествие к Одинокой горе, где Бэггинсу нужно будет найти потайную дверь, чтобы добраться до клада Смауга…

Релиз: fanatus
Качество видео: BDRip 1080p
Исходник: HOBBIT_DESOLATION_OF_SMAUG_2D_HDCLUB
Контейнер: MKV
Видео: MPEG-4 AVC, 11.7 Mbps, 1920x800 (2.40:1), 23.976 fps, 0.318 bit/pixel
Аудио 1: русский (AC3, 6 ch, 48 kHz, 448 kbps) Dub (BD CEE)
Аудио 2: русский (DTS, 6 ch, 48 kHz, 1510 kbps) AVO (Serbin)
Аудио 3: украинский (AC3, 6 ch, 48 kHz, 448 kbps) Ukr BD CEE
Аудио 4: английский (DTS, 6 ch, 48 kHz, 1510 kbps) Original
Формат субтитров: softsub (SRT)
Главы: есть
Примечание: На стороннюю речь в видеоряде присутствует неотключаемый хардсаб.
AddInfo
Перевод и озвучивание Юрия Сербина доступны благодаря пользователям HDTracker: Role, _MyxAmoP_, rebz9i, Shumway, -Джосс-, v111o, Gross1978, HDKing, Kerk, iogan111, KpucTo161; E180: oleg-k, KINOGON, denis_mgn_1987, xerman13, vik19662007, idalgo, masta, luka69, DMX-92, Serene, ultrajeka, blackmore, Letyoha3, Slimka, ZeDOK, DVD100, carnivale, zaq-qaz, HPotter, phaeton77, Ramis, Loki1982, STONECOLD, Foots, YoGuRt, DB73, Водолей, semargl, dir, Tio, matrox, ilbilb, Skoped, kRIPtograf, iogan111, Palmer Eldritch, Roman Lee, Andrey_Tula, ValK, Iceman, Bilko, пуля; HDClub: banan87, tambov68, lemonarium, DaviD18_85, RAUL.
Работа со звуком: Bloodymetal.
MediaInfo
General
Unique ID : 240584483227920510521948496602696839252 (0xB4FEE2D38A78E69796F19B36BFACF054)
Complete name : E:\The_Hobbit_The_Desolation_of_Smaug.2013.x264.BDRip.1080p.fanatus.mkv
Format : Matroska
Format version : Version 2
File size : 17.6 GiB
Duration : 2h 41mn
Overall bit rate : 15.6 Mbps
Movie name : The Hobbit. The Desolation of Smaug (2013) - fanatus
Encoded date : UTC 2014-05-24 06:26:48
Writing application : mkvmerge v3.4.0 ('Rapunzel') сборка от May 15 2010 09:38:20
Writing library : libebml v0.8.0 + libmatroska v0.9.0
Video
ID : 1
Format : AVC
Format/Info : Advanced Video Codec
Format profile : High@L4.1
Format settings, CABAC : Yes
Format settings, ReFrames : 5 frames
Codec ID : V_MPEG4/ISO/AVC
Duration : 2h 41mn
Bit rate : 11.7 Mbps
Width : 1 920 pixels
Height : 800 pixels
Display aspect ratio : 2.40:1
Frame rate : 23.976 fps
Color space : YUV
Chroma subsampling : 4:2:0
Bit depth : 8 bits
Scan type : Progressive
Bits/(Pixel*Frame) : 0.318
Stream size : 12.8 GiB (73%)
Title : The Hobbit. The Desolation of Smaug (2013) BDRip (1080p)
Writing library : x264 core 142 r2431+42 c69a006 tMod [8-bit@all X86]
Encoding settings : cabac=1 / ref=5 / deblock=1:-3:-3 / analyse=0x3:0x113 / me=tesa / subme=11 / psy=1 / fade_compensate=0.00 / psy_rd=1.05:0.00 / mixed_ref=1 / me_range=128 / chroma_me=1 / trellis=2 / 8x8dct=1 / cqm=0 / deadzone=21,11 / fast_pskip=0 / chroma_qp_offset=-2 / threads=16 / lookahead_threads=2 / sliced_threads=0 / nr=0 / decimate=0 / interlaced=0 / bluray_compat=0 / constrained_intra=0 / fgo=0 / bframes=9 / b_pyramid=2 / b_adapt=2 / b_bias=0 / direct=3 / weightb=1 / open_gop=0 / weightp=2 / keyint=240 / keyint_min=23 / scenecut=40 / intra_refresh=0 / rc_lookahead=240 / rc=2pass / mbtree=1 / bitrate=11700 / ratetol=1.0 / qcomp=0.75 / qpmin=0:0:0 / qpmax=69:69:69 / qpstep=4 / cplxblur=20.0 / qblur=0.5 / vbv_maxrate=50000 / vbv_bufsize=62500 / nal_hrd=none / filler=0 / ip_ratio=1.40 / aq=4:0.75 / aq-sensitivity=10.00 / aq-factor=1.00:1.00:1.00 / aq2=0 / aq3=0
Language : English
Default : Yes
Forced : No
Audio #1
ID : 2
Format : AC-3
Format/Info : Audio Coding 3
Mode extension : CM (complete main)
Format settings, Endianness : Big
Codec ID : A_AC3
Duration : 2h 41mn
Bit rate mode : Constant
Bit rate : 448 Kbps
Channel(s) : 6 channels
Channel positions : Front: L C R, Side: L R, LFE
Sampling rate : 48.0 KHz
Bit depth : 16 bits
Compression mode : Lossy
Stream size : 517 MiB (3%)
Title : Dub (BD CEE)
Language : Russian
Default : Yes
Forced : No
Audio #2
ID : 3
Format : DTS
Format/Info : Digital Theater Systems
Codec ID : A_DTS
Duration : 2h 41mn
Bit rate mode : Constant
Bit rate : 1 510 Kbps
Channel(s) : 6 channels
Channel positions : Front: L C R, Side: L R, LFE
Sampling rate : 48.0 KHz
Bit depth : 24 bits
Compression mode : Lossy
Stream size : 1.70 GiB (10%)
Title : AVO (Serbin)
Language : Russian
Default : No
Forced : No
Audio #3
ID : 4
Format : AC-3
Format/Info : Audio Coding 3
Mode extension : CM (complete main)
Format settings, Endianness : Big
Codec ID : A_AC3
Duration : 2h 41mn
Bit rate mode : Constant
Bit rate : 448 Kbps
Channel(s) : 6 channels
Channel positions : Front: L C R, Side: L R, LFE
Sampling rate : 48.0 KHz
Bit depth : 16 bits
Compression mode : Lossy
Stream size : 517 MiB (3%)
Title : Dub (BD CEE)
Language : Ukrainian
Default : No
Forced : No
Audio #4
ID : 5
Format : DTS
Format/Info : Digital Theater Systems
Codec ID : A_DTS
Duration : 2h 41mn
Bit rate mode : Constant
Bit rate : 1 510 Kbps
Channel(s) : 6 channels
Channel positions : Front: L C R, Side: L R, LFE
Sampling rate : 48.0 KHz
Bit depth : 24 bits
Compression mode : Lossy
Stream size : 1.70 GiB (10%)
Title : Original
Language : English
Default : No
Forced : No
Text #1
ID : 6
Format : UTF-8
Codec ID : S_TEXT/UTF8
Codec ID/Info : UTF-8 Plain Text
Title : Forced
Language : Russian
Default : Yes
Forced : Yes
Text #2
ID : 7
Format : UTF-8
Codec ID : S_TEXT/UTF8
Codec ID/Info : UTF-8 Plain Text
Title : BD CEE
Language : Russian
Default : No
Forced : No
Text #3
ID : 8
Format : UTF-8
Codec ID : S_TEXT/UTF8
Codec ID/Info : UTF-8 Plain Text
Title : iTunes
Language : Russian
Default : No
Forced : No
Text #4
ID : 9
Format : UTF-8
Codec ID : S_TEXT/UTF8
Codec ID/Info : UTF-8 Plain Text
Title : Full 2
Language : Russian
Default : No
Forced : No
Text #5
ID : 10
Format : UTF-8
Codec ID : S_TEXT/UTF8
Codec ID/Info : UTF-8 Plain Text
Title : Notabenoid
Language : Russian
Default : No
Forced : No
Text #6
ID : 11
Format : UTF-8
Codec ID : S_TEXT/UTF8
Codec ID/Info : UTF-8 Plain Text
Title : Forced
Language : Ukrainian
Default : No
Forced : No
Text #7
ID : 12
Format : UTF-8
Codec ID : S_TEXT/UTF8
Codec ID/Info : UTF-8 Plain Text
Title : iTunes
Language : Ukrainian
Default : No
Forced : No
Text #8
ID : 13
Format : UTF-8
Codec ID : S_TEXT/UTF8
Codec ID/Info : UTF-8 Plain Text
Title : Full 1
Language : English
Default : No
Forced : No
Text #9
ID : 14
Format : UTF-8
Codec ID : S_TEXT/UTF8
Codec ID/Info : UTF-8 Plain Text
Title : Full 2
Language : English
Default : No
Forced : No
Text #10
ID : 15
Format : UTF-8
Codec ID : S_TEXT/UTF8
Codec ID/Info : UTF-8 Plain Text
Title : SDH
Language : English
Default : No
Forced : No
Text #11
ID : 16
Format : UTF-8
Codec ID : S_TEXT/UTF8
Codec ID/Info : UTF-8 Plain Text
Title : SDH 2
Language : English
Default : No
Forced : No
Text #12
ID : 17
Format : UTF-8
Codec ID : S_TEXT/UTF8
Codec ID/Info : UTF-8 Plain Text
Title : SDH Colored
Language : English
Default : No
Forced : No
Menu
00:00:00.000 : en:The Quest for Erebor
00:05:44.093 : en:Wilderland
00:10:10.985 : en:The Master Summons
00:11:10.127 : en:A Commander of Legions
00:13:50.204 : en:Queer Lodgings
00:17:12.656 : en:The Elven-gate
00:21:25.325 : en:Mirkwood
00:24:33.471 : en:Flies and Spiders
00:33:03.272 : en:The Woodland Realm
00:36:05.746 : en:The Elvenking
00:39:38.959 : en:King and Captain
00:41:29.653 : en:Feast of Starlight
00:44:27.289 : en:Barrels Out of Bond
00:55:01.756 : en:The High Fells
00:58:41.768 : en:Bard the Bowman
01:02:05.138 : en:The Nature of Evil
01:05:29.592 : en:Smuggled Cargo
01:09:06.267 : en:Lake-town
01:11:29.118 : en:The Master of Lake-town
01:13:11.762 : en:The Home of Bard
01:19:14.958 : en:"It Is Our Fight"
01:20:48.468 : en:The Prophecy
01:23:12.529 : en:A Warm Welcome
01:27:09.641 : en:The Lonely Mountain
01:30:45.481 : en:A Spell of Concealment
01:33:29.812 : en:On the Doorstep
01:41:57.194 : en:Kingsfoil
01:42:24.471 : en:The Courage of Hobbits
01:44:08.033 : en:The Enemy Revealed
01:47:34.114 : en:Inside Information
01:56:46.332 : en:The Black Arrow
01:57:28.916 : en:In the Dragon's Lair
01:58:03.409 : en:Under Arrest
01:59:42.300 : en:Bilbo the Burglar
02:01:30.574 : en:Smaug the Magnificent
02:04:04.311 : en:Orc Attack
02:07:58.462 : en:Confrontations
02:09:43.108 : en:Elvish Medicine
02:10:58.642 : en:Hunter and Hunted
02:12:31.443 : en:"She Walks in Starlight"
02:13:54.317 : en:A Desperate Plan
02:16:25.427 : en:Duel in Lake-town
02:18:51.489 : en:The Forges Relit
02:26:03.588 : en:Smaug the Golden
02:30:51.208 : en:Credits
x264 [info]
x264 [info]: 1920x800p 1:1 @ 24000/1001 fps (cfr)
x264 [info]: started at Thu May 15 19:20:40 2014
x264 [info]: frame I:1828 Avg QP:12.83 size:245438
x264 [info]: frame P:68315 Avg QP:16.15 size: 94199
x264 [info]: frame B:161896 Avg QP:17.27 size: 44888
x264 [info]: consecutive B-frames: 5.6% 11.5% 10.5% 38.5% 10.9% 15.3% 3.4% 3.2% 0.3% 0.8%
x264 [info]: mb I I16..4: 6.7% 62.8% 30.5%
x264 [info]: mb P I16..4: 1.2% 14.3% 2.4% P16..4: 29.8% 33.7% 12.0% 0.0% 0.0% skip: 6.6%
x264 [info]: mb B I16..4: 0.1% 2.4% 0.6% B16..8: 36.5% 23.7% 4.7% direct: 9.3% skip:22.8% L0:41.7% L1:41.9% BI:16.4%
x264 [info]: 8x8 transform intra:77.7% inter:42.3%
x264 [info]: direct mvs spatial:98.3% temporal:1.7%
x264 [info]: coded y,uvDC,uvAC intra: 91.5% 75.1% 49.1% inter: 44.1% 22.9% 8.2%
x264 [info]: i16 v,h,dc,p: 24% 9% 6% 62%
x264 [info]: i8 v,h,dc,ddl,ddr,vr,hd,vl,hu: 8% 9% 8% 10% 13% 12% 13% 12% 15%
x264 [info]: i4 v,h,dc,ddl,ddr,vr,hd,vl,hu: 9% 10% 7% 8% 15% 12% 14% 10% 15%
x264 [info]: i8c dc,h,v,p: 39% 27% 18% 15%
x264 [info]: Weighted P-Frames: Y:3.1% UV:1.1%
x264 [info]: ref P L0: 57.5% 10.9% 17.9% 6.9% 5.8% 0.9% 0.0%
x264 [info]: ref B L0: 87.3% 9.4% 2.6% 0.7%
x264 [info]: ref B L1: 95.9% 4.1%
x264 [info]: kb/s:11697.60
x264 [info]: encoded 232039 frames, 0.3186 fps, 11697.60 kb/s, 13496 MB
x264 [info]: ended at Sat May 24 05:37:41 2014
x264 [info]: encoding duration 202:17:01
Скриншот c названием фильма Скриншоты Source vs Rip
Скачать

Скачать торрент!

Как скачивать? · Что такое торрент? · Рейтинг и ограничения

Сайт не распространяет и не хранит электронные версии произведений, а лишь предоставляет доступ к создаваемому пользователями каталогу ссылок на торрент-файлы, которые содержат только списки хеш-сумм

[Профиль] [ЛС]
Показать сообщения:    
Ответить на тему

Текущее время: Сегодня 00:16

Часовой пояс: GMT + 4



Вы не можете начинать темы
Вы не можете отвечать на сообщения
Вы не можете редактировать свои сообщения
Вы не можете удалять свои сообщения
Вы не можете голосовать в опросах
Вы не можете прикреплять файлы к сообщениям
Вы не можете скачивать файлы