Колетт / Colette (Милан Цислар / Milan Cieslar) [2013, Словакия, Чехия, драма, мелодрама, военный, история, BDRip 1080p] VO (Lenape) + Original (Eng) + Subs (Rus, Cze)

Ответить на тему
 
Автор Сообщение

user ®

Стаж: 7 лет 7 месяцев

Сообщений: 20008

Пост Пост: #1 от 25-Май-2014 15:10

[Цитировать]

Колетт / Colette Страна: Словакия, Чехия
Жанр: драма, мелодрама, военный, история
Год выпуска: 2013
Продолжительность: 02:04:48
Перевод: Одноголосый закадровый Lenape
Cубтитры: чешские (SDH), русские (DIDO123A)
Оригинальная аудиодорожка: английский
Режиссер: Милан Цислар / Milan Cieslar
В ролях: Иржи Мадл, Клеменс Тиоли, Иржи Бартошка, Эрик Баувер, Йереми Дюран, Гелена Дворжакова, Андрей Грыц, Барбора Кодетова
Описание:
Арношт Лустиг был одним из самых известных в мире литературных авторов своего времени. Роман Лустига "Девушка из Антверпена", на котором основывается фильм "Колетт", опирается на личный опыт автора в нацистском концентрационном лагере и его собственных воспоминаниях о нескольких попытках вырваться из ада Освенцима. История номинировалась на Пулитцеровскую премию. Фильм о силе любви в экстремальных жизненных обстоятельствах. Это история молодых влюбленных, их решимости вырваться из безнадежного состояния, их мужестве перед лицом смерти.
- ||-Тип релиза: BDRip 1080p (рип от iNG@DON)
Контейнер: MKV
Видео: AVC (x264), 1920x804 (2,40:1) at 24,000 fps, 12600 Кbps, 0.339 bpp
Аудио 1: DTS; 1536 Kbps; CBR; 6 ch; 48 khz | VO - Lenape |
Аудио 2: DTS; 1536 Kbps; CBR; 6 ch; 48 khz | Чешский (дубляж) |
Аудио 3: DTS; 1536 Kbps; CBR; 6 ch; 48 khz | Английский |
Формат субтитров: softsub (SRT)

Скриншоты || x264 Info || MediaInfo || Notes
Notes:.....................................................................................................................iNG писал(а):
f3kdb and crf 13.5 was used in 60 zones.
MediaInfo
Общее
Уникальный идентификатор                 : 193459837931382335463858072450323547492 (0x918B026DFDCA4C7185147E2A30518564)
Полное имя                               : Колетт.2013.L1.1080p.BluRay.x264-DON.mkv
Формат                                   : Matroska
Версия формата                           : Version 4 / Version 2
Размер файла                             : 15,2 Гбайт
Продолжительность                        : 2 ч. 4 м.
Общий поток                              : 17,4 Мбит/сек
Название фильма                          : Colette [1080p] [2013] VO
Дата кодирования                         : UTC 2014-05-24 08:38:52
Программа кодирования                    : mkvmerge v6.9.1 ('Blue Panther') 32bit built on Apr 18 2014 18:15:44
Библиотека кодирования                   : libebml v1.3.0 + libmatroska v1.4.1
Видео
Идентификатор                            : 1
Формат                                   : AVC
Формат/Информация                        : Advanced Video Codec
Профиль формата                          : High@L4.1
Параметр CABAC формата                   : Да
Параметр ReFrames формата                : 5 кадров
Идентификатор кодека                     : V_MPEG4/ISO/AVC
Продолжительность                        : 2 ч. 4 м.
Битрейт                                  : 12,6 Мбит/сек
Ширина                                   : 1920 пикселей
Высота                                   : 804 пикселя
Соотношение сторон                       : 2,40:1
Режим частоты кадров                     : Постоянный
Частота кадров                           : 24,000 кадра/сек
Цветовое пространство                    : YUV
Субдискретизация насыщенности            : 4:2:0
Битовая глубина                          : 8 бит
Тип развёртки                            : Прогрессивная
Бит/(Пиксели*Кадры)                      : 0.339
Размер потока                            : 11,0 Гбайт (72%)
Заголовок                                : profile.php?mode=viewprofile&u=22488948
Библиотека кодирования                   : x264 core 140 r2377 1ca7bb9
Настройки программы                      : cabac=1 / ref=5 / deblock=1:-3:-3 / analyse=0x3:0x133 / me=tesa / subme=10 / psy=1 / psy_rd=1.05:0.00 / mixed_ref=1 / me_range=24 / chroma_me=1 / trellis=2 / 8x8dct=1 / cqm=0 / deadzone=21,11 / fast_pskip=0 / chroma_qp_offset=-2 / threads=12 / lookahead_threads=2 / sliced_threads=0 / nr=0 / decimate=0 / interlaced=0 / bluray_compat=0 / constrained_intra=0 / bframes=8 / b_pyramid=2 / b_adapt=2 / b_bias=0 / direct=3 / weightb=1 / open_gop=0 / weightp=2 / keyint=240 / keyint_min=24 / scenecut=40 / intra_refresh=0 / rc_lookahead=60 / rc=crf / mbtree=0 / crf=15.5 / qcomp=0.60 / qpmin=0 / qpmax=69 / qpstep=4 / vbv_maxrate=62500 / vbv_bufsize=78125 / crf_max=0.0 / nal_hrd=none / filler=0 / ip_ratio=1.30 / pb_ratio=1.10 / aq=1:0.75 / zones=505,1935,crf=13.5/12487,12642,crf=13.5/13071,13298,crf=13.5/14160,15209,crf=13.5/15541,15621,crf=13.5/15677,15840,crf=13.5/15955,16168,crf=13.5/16240,16262,crf=13.5/16762,17755,crf=13.5/19879,19944,crf=13.5/20033,20041,crf=13.5/20100,20143,crf=13.5/23685,23800,crf=13.5/27192,27385,crf=13.5/27672,27894,crf=13.5/28340,28583,crf=13.5/29051,29124,crf=13.5/29684,29971,crf=13.5/32689,32754,crf=13.5/32910,33009,crf=13.5/33175,33290,crf=13.5/33646,33693,crf=13.5/34093,34166,crf=13.5/34258,34391,crf=13.5/34537,34578,crf=13.5/34900,38146,crf=13.5/38326,38471,crf=13.5/38582,38734,crf=13.5/39040,39142,crf=13.5/39332,40133,crf=13.5/42107,45933,crf=13.5/48858,51864,crf=13.5/52373,52772,crf=13.5/55465,56104,crf=13.5/59312,59612,crf=13.5/67456,71423,crf=13.5/71607,71695,crf=13.5/74788,74951,crf=13.5/77389,77460,crf=13.5/79515,80141,crf=13.5/80925,83804,crf=13.5/89164,91321,crf=13.5/91766,92180,crf=13.5/92390,93916,crf=13.5/94746,96853,crf=13.5/100794,104753,crf=13.5/106258,111348,crf=13.5/111794,112593,crf=13.5/114139,119987crf=13.5/123194,123913,crf=13.5/125834,126080,crf=13.5/127477,128227,crf=13.5/129131,137307,crf=13.5/138011,138203,crf=13.5/139701,139955,crf=13.5/142112,142297,crf=13.5/144027,147910,crf=13.5/148655,148875,crf=13.5/153307,153799,crf=13.5/154142,155451,crf=13.5/157595,157649,crf=13.5/171360,171375,crf=13.5/171376,179725,crf=20
Язык                                     : English
Default                                  : Да
Forced                                   : Нет
Аудио #1
Идентификатор                            : 2
Формат                                   : DTS
Формат/Информация                        : Digital Theater Systems
Режим                                    : 16
Параметр Endianness формата              : Big
Идентификатор кодека                     : A_DTS
Продолжительность                        : 2 ч. 4 м.
Вид битрейта                             : Постоянный
Битрейт                                  : 1509 Кбит/сек
Каналы                                   : 6 каналов
Расположение каналов                     : Front: L C R, Side: L R, LFE
Частота                                  : 48,0 КГц
Битовая глубина                          : 16 бит
Метод сжатия                             : С потерями
Размер потока                            : 1,32 Гбайт (9%)
Заголовок                                : VO [Lenape]
Язык                                     : Russian
Default                                  : Да
Forced                                   : Нет
Аудио #2
Идентификатор                            : 3
Формат                                   : DTS
Формат/Информация                        : Digital Theater Systems
Режим                                    : 16
Параметр Endianness формата              : Big
Идентификатор кодека                     : A_DTS
Продолжительность                        : 2 ч. 4 м.
Вид битрейта                             : Постоянный
Битрейт                                  : 1509 Кбит/сек
Каналы                                   : 6 каналов
Расположение каналов                     : Front: L C R, Side: L R, LFE
Частота                                  : 48,0 КГц
Битовая глубина                          : 16 бит
Метод сжатия                             : С потерями
Размер потока                            : 1,32 Гбайт (9%)
Заголовок                                : dub
Язык                                     : Czech
Default                                  : Нет
Forced                                   : Нет
Аудио #3
Идентификатор                            : 4
Формат                                   : DTS
Формат/Информация                        : Digital Theater Systems
Режим                                    : 16
Параметр Endianness формата              : Big
Идентификатор кодека                     : A_DTS
Продолжительность                        : 2 ч. 4 м.
Вид битрейта                             : Постоянный
Битрейт                                  : 1509 Кбит/сек
Каналы                                   : 6 каналов
Расположение каналов                     : Front: L C R, Side: L R, LFE
Частота                                  : 48,0 КГц
Битовая глубина                          : 24 бит
Метод сжатия                             : С потерями
Размер потока                            : 1,32 Гбайт (9%)
Язык                                     : English
Default                                  : Нет
Forced                                   : Нет
Текст #1
Идентификатор                            : 5
Формат                                   : UTF-8
Идентификатор кодека                     : S_TEXT/UTF8
Идентификатор кодека/Информация          : UTF-8 Plain Text
Заголовок                                : SDH
Язык                                     : Czech
Default                                  : Нет
Forced                                   : Нет
Текст #2
Идентификатор                            : 6
Формат                                   : UTF-8
Идентификатор кодека                     : S_TEXT/UTF8
Идентификатор кодека/Информация          : UTF-8 Plain Text
Заголовок                                : [DIDO123A]
Язык                                     : Russian
Default                                  : Нет
Forced                                   : Нет
Меню
00:00:00.000                             : en:
00:09:38.791                             : en:
00:24:44.583                             : en:
00:39:10.416                             : en:
00:50:28.916                             : en:
01:07:15.583                             : en:
01:18:39.833                             : en:
01:29:40.458                             : en:
01:43:29.958                             : en:
01:50:55.458                             : en:
x264 Infox264 [info]: frame I:1052 Avg QP:11.37 size:225994
x264 [info]: frame P:41679 Avg QP:13.76 size:106570
x264 [info]: frame B:136995 Avg QP:13.90 size: 54097
x264 [info]: consecutive B-frames: 2.2% 4.8% 11.1% 15.8% 20.4% 40.9% 3.2% 0.7% 0.9% Цитата:- Голос был хардкорно почишен от шума --> больше с ним ничего не делалось
Озвучка наложена на чешский дубляж
Скачать

Скачать торрент!

Как скачивать? · Что такое торрент? · Рейтинг и ограничения

Сайт не распространяет и не хранит электронные версии произведений, а лишь предоставляет доступ к создаваемому пользователями каталогу ссылок на торрент-файлы, которые содержат только списки хеш-сумм

[Профиль] [ЛС]
Показать сообщения:    
Ответить на тему

Текущее время: Сегодня 07:51

Часовой пояс: GMT + 4



Вы не можете начинать темы
Вы не можете отвечать на сообщения
Вы не можете редактировать свои сообщения
Вы не можете удалять свои сообщения
Вы не можете голосовать в опросах
Вы не можете прикреплять файлы к сообщениям
Вы не можете скачивать файлы