Туннель / The Tunnel (Карло Ледесма / Carlo Ledesma) [2011, Австралия, ужасы, триллер, драма, BDRemux 1080p] DVO (den904 & DeadSno) + VO (zamez) + Original (Eng) + Subs (Eng)

Ответить на тему
 
Автор Сообщение

user ®

Стаж: 7 лет 7 месяцев

Сообщений: 20008

Пост Пост: #1 от 25-Май-2014 15:10

[Цитировать]

Туннель / The Tunnel

-
-Страна: Австралия
Студия: Distracted Media, Dlshs, Zapruder's Other Films
Жанр: ужасы, триллер, драма
Год выпуска: 2011
Продолжительность: 01:34:05--Перевод 1: Любительский (двухголосый закадровый) den904 & DeadSno
Перевод 2: Одноголосый закадровый zamez по переводу A.R.K.H.O.N
Cубтитры: английские SDH
Оригинальная аудиодорожка: английский--Режиссер: Карло Ледесма / Carlo Ledesma
В ролях: Бел Делия, Энди Родореда, Стив Дэвис, Люк Арнольд, Джеймс Кэйтлин, Бен МакЛэйн, Ребекка Клэй, Шеннон Джонс--Описание: Для решения проблем с водоснабжением власти Сиднея выдвигают проект по очистке и использованию объёмов воды, скопившейся в старых подземных коллекторах под городом. При этом чиновники отрицают тот факт, что брошенные туннели давно стали местом жительства городских бездомных, рискующих в случае осуществления проекта потерять последнее прибежище. Однако помимо бомжей в этих катакомбах обитает и кое-что ещё, с чем предстоит встретиться группе спустившихся под землю документалистов.--imdb | kinopoisk | Сэмпл--Тип релиза: BDRemux 1080p [The.Tunnel.2011.DUAL.COMPLETE.BLURAY-iFPD]
Контейнер: MKV
Видео: MPEG-4 AVC / 21976 kbps / 1920x1080 / 24 fps / 16:9 / High Profile 4.1
Аудио 1: Russian AC3 / 2.0 / 48 kHz / 192 kbps / 16 bits |den904 & DeadSno|
Аудио 2: Russian AC3 / 2.0 / 48 kHz / 224 kbps / 16 bits|zamez|
Аудио 3: English DTS-HD High-Res Audio / 7.1 / 48 kHz / 3018 kbps / 16 bits (DTS Core: 5.1 / 48 kHz / 1509 kbps / 16 bits) |original|
Формат субтитров: softsub [SRT]

MediaInfo
Общее
Уникальный идентификатор                 : 208812408646629124090378197506016023623 (0x9D17CE9B4D3FCFBA8C4A533D74AE1447)
Полное имя                               : G:\HD\Туннель.2011.Blu-Ray.Remux.(1080p).mkv
Формат                                   : Matroska
Версия формата                           : Version 4 / Version 2
Размер файла                             : 16,7 Гбайт
Продолжительность                        : 1 ч. 34 м.
Режим общего битрейта                    : Переменный
Общий поток                              : 25,3 Мбит/сек
Дата кодирования                         : UTC 2014-05-24 07:22:53
Программа кодирования                    : mkvmerge v6.9.1 ('Blue Panther') 64bit built on Apr 18 2014 18:23:38
Библиотека кодирования                   : libebml v1.3.0 + libmatroska v1.4.1
Attachment                               : Yes
Видео
Идентификатор                            : 1
Формат                                   : AVC
Формат/Информация                        : Advanced Video Codec
Профиль формата                          : High@L4.1
Параметр CABAC формата                   : Да
Параметр ReFrames формата                : 4 кадра
Идентификатор кодека                     : V_MPEG4/ISO/AVC
Продолжительность                        : 1 ч. 34 м.
Вид битрейта                             : Переменный
Битрейт                                  : 21,4 Мбит/сек
Максимальный битрейт                     : 35,0 Мбит/сек
Ширина                                   : 1920 пикселей
Высота                                   : 1080 пикселей
Соотношение сторон                       : 16:9
Режим частоты кадров                     : Постоянный
Частота кадров                           : 24,000 кадра/сек
Стандарт вещания                         : NTSC
Цветовое пространство                    : YUV
Субдискретизация насыщенности            : 4:2:0
Битовая глубина                          : 8 бит
Тип развёртки                            : Прогрессивная
Бит/(Пиксели*Кадры)                      : 0.430
Размер потока                            : 14,1 Гбайт (84%)
Default                                  : Да
Forced                                   : Нет
Основные цвета                           : BT.709
Характеристики трансфера                 : BT.709
Коэффициенты матрицы                     : BT.709
Аудио #1
Идентификатор                            : 2
Формат                                   : AC-3
Формат/Информация                        : Audio Coding 3
Расширение режима                        : CM (complete main)
Параметр Endianness формата              : Big
Идентификатор кодека                     : A_AC3
Продолжительность                        : 1 ч. 34 м.
Вид битрейта                             : Постоянный
Битрейт                                  : 192 Кбит/сек
Каналы                                   : 2 канала
Расположение каналов                     : Front: L R
Частота                                  : 48,0 КГц
Битовая глубина                          : 16 бит
Метод сжатия                             : С потерями
Размер потока                            : 130 Мбайт (1%)
Заголовок                                : den904, DeadSno
Язык                                     : Russian
Default                                  : Да
Forced                                   : Нет
Аудио #2
Идентификатор                            : 3
Формат                                   : AC-3
Формат/Информация                        : Audio Coding 3
Расширение режима                        : CM (complete main)
Параметр Endianness формата              : Big
Идентификатор кодека                     : A_AC3
Продолжительность                        : 1 ч. 34 м.
Вид битрейта                             : Постоянный
Битрейт                                  : 224 Кбит/сек
Каналы                                   : 2 канала
Расположение каналов                     : Front: L R
Частота                                  : 48,0 КГц
Битовая глубина                          : 16 бит
Метод сжатия                             : С потерями
Размер потока                            : 151 Мбайт (1%)
Заголовок                                : zamez
Язык                                     : Russian
Default                                  : Нет
Forced                                   : Нет
Аудио #3
Идентификатор                            : 4
Формат                                   : DTS
Формат/Информация                        : Digital Theater Systems
Профиль формата                          : HRA / Core
Режим                                    : 16
Параметр Endianness формата              : Big
Идентификатор кодека                     : A_DTS
Продолжительность                        : 1 ч. 34 м.
Вид битрейта                             : Постоянный
Битрейт                                  : 3018 Кбит/сек / 1509 Кбит/сек
Каналы                                   : 8 каналов / 6 каналов
Расположение каналов                     : Front: L C R, Side: L R, Back: L R, LFE / Front: L C R, Side: L R, LFE
Частота                                  : 48,0 КГц
Битовая глубина                          : 16 бит / 24 бит
Метод сжатия                             : С потерями
Размер потока                            : 1,99 Гбайт (12%)
Язык                                     : English
Default                                  : Нет
Forced                                   : Нет
Текст
Идентификатор                            : 5
Формат                                   : UTF-8
Идентификатор кодека                     : S_TEXT/UTF8
Идентификатор кодека/Информация          : UTF-8 Plain Text
Заголовок                                : SDH
Язык                                     : English
Default                                  : Нет
Forced                                   : Нет
Меню
00:00:00.000                             : :Chapter 01
00:04:09.458                             : :Chapter 02
00:10:01.875                             : :Chapter 03
00:15:07.458                             : :Chapter 04
00:20:57.208                             : :Chapter 05
00:24:15.125                             : :Chapter 06
00:31:18.291                             : :Chapter 07
00:37:06.458                             : :Chapter 08
00:45:48.625                             : :Chapter 09
00:56:59.041                             : :Chapter 10
01:04:50.416                             : :Chapter 11
01:10:55.208                             : :Chapter 12
01:20:37.750                             : :Chapter 13
01:24:41.208                             : :Chapter 14
01:28:36.750                             : :Chapter 15
01:30:26.916                             : :Chapter 16
Скриншоты Дополнительно
Скачать

Скачать торрент!

Как скачивать? · Что такое торрент? · Рейтинг и ограничения

Сайт не распространяет и не хранит электронные версии произведений, а лишь предоставляет доступ к создаваемому пользователями каталогу ссылок на торрент-файлы, которые содержат только списки хеш-сумм

[Профиль] [ЛС]
Показать сообщения:    
Ответить на тему

Текущее время: Сегодня 17:29

Часовой пояс: GMT + 4



Вы не можете начинать темы
Вы не можете отвечать на сообщения
Вы не можете редактировать свои сообщения
Вы не можете удалять свои сообщения
Вы не можете голосовать в опросах
Вы не можете прикреплять файлы к сообщениям
Вы не можете скачивать файлы