Тиски (Валерий Тодоровский) [2007, триллер, драма, DVDRip]

Ответить на тему
 
Автор Сообщение

user ®

Стаж: 8 лет 2 месяца

Сообщений: 20008

Пост Пост: #1 от 25-Май-2014 08:50

[Цитировать]

Тиски
Жанр: триллер, драма
Год выпуска: 2007
Продолжительность: 02:05:20
Режиссёр: Валерий Тодоровский
В ролях: Максим Матвеев, Фёдор Бондарчук, Алексей Серебряков, Игорь Войнаровский, Антон Шагин, Сергей Волобуев, Екатерина Вилкова, Евгения Брик (Хиривская), Денис Баландин, Сергей Пирняк, Денис Ясик, Константин Балакирев, Олег Радченко, Артём Шкрабак, Янина Бугрова, Виктория Маслова, Евгений Калмыков, Вадим Шанаурин, Виталий Белау
Описание: Действие фильма происходит в небольшом провинциальном городе. Денис Орлов (Максим Матвеев) - молодой амбициозный ди-джей ночного клуба. У него есть всё - талант, любовь, друзья. Он мечтает стать профессиональным музыкантом и сменить площадку с танцпола на концертные залы. Жизнь Дениса - дорога вперед, сулящая множество сюрпризов. Но не всегда приятных... Чтобы срочно раздобыть денег, Денис соглашается на одну - всего лишь одну - сделку по продаже легких наркотиков. Но именно на этой сделке Денис переходит дорогу районному криминальному авторитету Вернеру (Федор Бондарчук). Дениса и его друзей ставят перед выбором - или "отработка грехов" в структуре Вернера, или безымянная могила на пустыре за городом. Теперь Денис вынужден вести двойную жизнь. Ночью он - ди-джей, в остальное время - наркодилер на службе у одного из самых хитрых и безжалостных бандитов города. Денис против своего желания поднимается вверх в бандитской иерархии. По случайному стечению обстоятельств он становится вдруг ключевой фигурой в многолетнем противостоянии Вернера и его Немезиды - начальника местной криминальной милиции, майора Варейкиса (Алексей Серебряков). Единственное желание Дениса - вернуться к нормальной жизни, но для этого ему предстоит сделать выбор…
Сэмпл: http://multi-up.com/975890
Качество видео: DVDRip
Формат видео: AVI
Видео: XviD, 1816 Кбит/с, 704x304, 25,000 кадров/сек
Аудио: АС3, 6 ch, 448 Кбит/с, 48,0 КГц
MediaInfo
I:\Тиски\Tiski.2007.XviD.DVDRip.avi
General
Complete name : I:\Тиски\Tiski.2007.XviD.DVDRip.avi
Format : AVI
Format/Info : Audio Video Interleave
Format profile : OpenDML
File size : 2.06 GiB
Duration : 2h 5mn
Overall bit rate : 2 348 Kbps
Writing application : VirtualDubMod 1.5.4.1 (build 2178/release)
Writing library : VirtualDubMod build 2178/release
Video #0
ID : 0
Format : MPEG-4 Visual
Format profile : Advanced Simple@L5
Format settings, BVOP : No
Format settings, QPel : No
Format settings, GMC : No warppoints
Format settings, Matrix : Custom
Codec ID : XVID
Codec ID/Hint : XviD
Duration : 2h 5mn
Bit rate : 1 891 Kbps
Width : 704 pixels
Height : 304 pixels
Display aspect ratio : 2.35:1
Frame rate : 25.000 fps
Color space : YUV
Chroma subsampling : 4:2:0
Bit depth : 8 bits
Scan type : Progressive
Compression mode : Lossy
Bits/(Pixel*Frame) : 0.353
Stream size : 1.66 GiB (81%)
Writing library : XviD 1.2.0.dev47 (UTC 2006-11-01)
Audio #1
ID : 1
Format : AC-3
Format/Info : Audio Coding 3
Mode extension : CM (complete main)
Format settings, Endianness : Big
Codec ID : 2000
Duration : 2h 5mn
Bit rate mode : Constant
Bit rate : 448 Kbps
Channel count : 6 channels
Channel positions : Front: L C R, Side: L R, LFE
Sampling rate : 48.0 KHz
Bit depth : 16 bits
Compression mode : Lossy
Stream size : 402 MiB (19%)
Alignment : Split accross interleaves
Interleave, duration : 96 ms (2.40 video frames)
Interleave, preload duration : 96 ms
Language : Russian
Скриншот c названием фильма Скриншоты
Скачать

Скачать торрент!

Как скачивать? · Что такое торрент? · Рейтинг и ограничения

Сайт не распространяет и не хранит электронные версии произведений, а лишь предоставляет доступ к создаваемому пользователями каталогу ссылок на торрент-файлы, которые содержат только списки хеш-сумм

[Профиль] [ЛС]
Показать сообщения:    
Ответить на тему

Текущее время: Сегодня 17:57

Часовой пояс: GMT + 4



Вы не можете начинать темы
Вы не можете отвечать на сообщения
Вы не можете редактировать свои сообщения
Вы не можете удалять свои сообщения
Вы не можете голосовать в опросах
Вы не можете прикреплять файлы к сообщениям
Вы не можете скачивать файлы