Одна миллиардная доля / Parts Per Billion (Брайан Хориути / Brian Horiuchi) [2014, США, фантастика, драма, WEB-DLRip] VO (datynet)

Ответить на тему
 
Автор Сообщение

user ®

Стаж: 7 лет 7 месяцев

Сообщений: 20008

Пост Пост: #1 от 25-Май-2014 00:20

[Цитировать]

Одна миллиардная доля / Parts Per Billion
Страна: США
Жанр: фантастика, драма
Год выпуска: 2014
Продолжительность: 01:38:36
Перевод: Одноголосый закадровый datynet
Cубтитры: нет
Режиссер: Брайан Хориути / Brian Horiuchi
В ролях: Розарио Доусон, Джош Хартнетт, Тереза Палмер, Алексис Бледел, Пенн Бэджли, Джина Роулендс, Фрэнк Ланджелла, Конор Лесли, Хилл Харпер, Нед Вон
Описание: История рассказывает о трёх парах, столкнувшихся с одним и тем же шокирующим событием, которое разлучило их.
Сэмпл: http://multi-up.com/975775
Качество видео: WEB-DLRip
Формат видео: AVI
Видео: XviD, 1789 kb/s, 720x384, 23,976 кадра/сек
Аудио: MP3, 192 kb/s (2 ch), 44,1 КГц
MediaInfo
I:\Одна миллиардная доля\Parts.Per.Billion.L1.2014.WEBDLRip.1400MB.avi
General
Complete name : I:\Одна миллиардная доля\Parts.Per.Billion.L1.2014.WEBDLRip.1400MB.avi
Format : AVI
Format/Info : Audio Video Interleave
File size : 1.37 GiB
Duration : 1h 38mn
Overall bit rate mode : Variable
Overall bit rate : 1 994 Kbps
Writing application : VirtualDubMod 1.5.10.3 | www.virtualdub-fr.org || (build 2550/release)
Writing library : VirtualDubMod build 2550/release
Video #0
ID : 0
Format : MPEG-4 Visual
Format profile : Advanced Simple@L5
Format settings, BVOP : 1
Format settings, QPel : No
Format settings, GMC : No warppoints
Format settings, Matrix : Custom
Codec ID : XVID
Codec ID/Hint : XviD
Duration : 1h 38mn
Bit rate : 1 789 Kbps
Width : 720 pixels
Height : 384 pixels
Display aspect ratio : 1.85:1
Frame rate : 23.976 fps
Color space : YUV
Chroma subsampling : 4:2:0
Bit depth : 8 bits
Scan type : Progressive
Compression mode : Lossy
Bits/(Pixel*Frame) : 0.270
Stream size : 1.23 GiB (90%)
Writing library : XviD 73
Audio #1
ID : 1
Format : MPEG Audio
Format version : Version 1
Format profile : Layer 3
Codec ID : 55
Codec ID/Hint : MP3
Duration : 1h 38mn
Bit rate mode : Variable
Bit rate : 192 Kbps
Channel count : 2 channels
Sampling rate : 44.1 KHz
Compression mode : Lossy
Stream size : 135 MiB (10%)
Alignment : Aligned on interleaves
Interleave, duration : 26 ms (0.63 video frame)
Interleave, preload duration : 500 ms
Скриншот c названием фильма Скриншоты
Скачать

Скачать торрент!

Как скачивать? · Что такое торрент? · Рейтинг и ограничения

Сайт не распространяет и не хранит электронные версии произведений, а лишь предоставляет доступ к создаваемому пользователями каталогу ссылок на торрент-файлы, которые содержат только списки хеш-сумм

[Профиль] [ЛС]
Показать сообщения:    
Ответить на тему

Текущее время: Сегодня 12:51

Часовой пояс: GMT + 4



Вы не можете начинать темы
Вы не можете отвечать на сообщения
Вы не можете редактировать свои сообщения
Вы не можете удалять свои сообщения
Вы не можете голосовать в опросах
Вы не можете прикреплять файлы к сообщениям
Вы не можете скачивать файлы