Горько! (Жора Крыжовников) [2013, комедия, BDRip-AVC]

Ответить на тему
 
Автор Сообщение

user ®

Стаж: 7 лет 7 месяцев

Сообщений: 20008

Пост Пост: #1 от 24-Май-2014 18:00

[Цитировать]

Горько!«Главное не нажраться»- Страна: Россия
Жанр: комедия
Год выпуска: 2013
Продолжительность: 01:40:43-Перевод: Не требуется
Cубтитры: отсутствуют
Навигация по главам: Присутствует - 12 глав-Режиссер: Жора Крыжовников
В ролях: Сергей Светлаков, Юлия Александрова, Егор Корешков, Ян Цапник, Данила Якушев, Юлия Сулес, Елена Валюшкина, Александр Паль, Сергей Лавыгин, Анастасия Добахова, Валентина Мазунина, Владимир Тебенко, Евгений Кушпель, Максим Казаков-Описание
Прогрессивные и талантливые Наташа и Рома мечтают о европейской свадьбе на берегу моря… но у Наташиного отчима заготовлен другой сценарий. Грубый чиновник городской администрации рассматривает торжество как трамплин для собственной карьеры и стремится устроить все «как надо». Молодых ждет незабываемый вечер в ресторане «Золотой» с полным набором занудных обрядов. Не в силах бороться, ребята решают провести свадьбу своей мечты в секрете от консервативных родственников. Но по нелепой случайности оба торжества сливаются воедино.
-
Download sample-Качество видео: BDRip-AVC |
Формат видео: MKV-Видео: 896x504 (16:9), 24.000 fps, x264 ~2703 kbps avg, 0.244 bit/pixel
Аудио: 48 kHz, AC3 Dolby Digital, 3/2 (L,C,R,l,r) + LFE ch, ~448 kbps | Не требуется-

MediaInfo
General
Unique ID : 172000681836448480263368135808711198392 (0x816620592773DFFD93C290C74F1106B8)
Complete name : D:\Фильмы\Рипы\Горько! 2013 BDRip-AVC.eFK.mkv
Format : Matroska
Format version : Version 4 / Version 2
File size : 2.22 GiB
Duration : 1h 40mn
Overall bit rate : 3 154 Kbps
Movie name : Горько! (2013) -
Encoded date : UTC 2014-05-24 13:41:06
Writing application : mkvmerge v6.1.0 ('Old Devil') built on Mar 4 2013 09:10:42
Writing library : libebml v1.3.0 + libmatroska v1.4.0
Attachment : Yes
Video
ID : 1
Format : AVC
Format/Info : Advanced Video Codec
Format profile : High@L4.1
Format settings, CABAC : Yes
Format settings, ReFrames : 15 frames
Codec ID : V_MPEG4/ISO/AVC
Duration : 1h 40mn
Bit rate : 2 643 Kbps
Width : 896 pixels
Height : 504 pixels
Display aspect ratio : 16:9
Frame rate mode : Constant
Frame rate : 24.000 fps
Color space : YUV
Chroma subsampling : 4:2:0
Bit depth : 8 bits
Scan type : Progressive
Bits/(Pixel*Frame) : 0.244
Stream size : 1.86 GiB (84%)
Title : eFK
Writing library : x264 core 142 r2431kMod ac76440
Encoding settings : cabac=1 / ref=15 / deblock=1:-3:-2 / analyse=0x3:0x133 / me=umh / subme=11 / psy=1 / fade_compensate=0.00 / psy_rd=1.00:0.05 / mixed_ref=1 / me_range=48 / chroma_me=1 / trellis=2 / 8x8dct=1 / cqm=0 / deadzone=21,11 / fast_pskip=1 / chroma_qp_offset=-3 / threads=8 / lookahead_threads=2 / sliced_threads=0 / nr=0 / decimate=1 / interlaced=0 / bluray_compat=0 / constrained_intra=0 / fgo=0 / bframes=12 / b_pyramid=2 / b_adapt=2 / b_bias=0 / direct=3 / weightb=1 / open_gop=0 / weightp=2 / keyint=250 / keyint_min=23 / scenecut=40 / intra_refresh=0 / rc_lookahead=60 / rc=crf / mbtree=0 / crf=18.3000 / qcomp=0.60 / qpmin=0 / qpmax=69 / qpstep=4 / vbv_maxrate=50000 / vbv_bufsize=62500 / crf_max=0.0 / nal_hrd=none / filler=0 / ip_ratio=1.40 / pb_ratio=1.30 / aq=1:0.85
Default : Yes
Forced : No
Audio
ID : 2
Format : AC-3
Format/Info : Audio Coding 3
Mode extension : CM (complete main)
Format settings, Endianness : Big
Codec ID : A_AC3
Duration : 1h 40mn
Bit rate mode : Constant
Bit rate : 448 Kbps
Channel count : 6 channels
Channel positions : Front: L C R, Side: L R, LFE
Sampling rate : 48.0 KHz
Bit depth : 16 bits
Compression mode : Lossy
Stream size : 323 MiB (14%)
Language : Russian
Default : Yes
Forced : No
Menu
00:00:00.000 : :Chapter 01
00:10:25.125 : :Chapter 02
00:17:56.625 : :Chapter 03
00:28:33.375 : :Chapter 04
00:32:24.916 : :Chapter 05
00:46:12.666 : :Chapter 06
00:53:49.958 : :Chapter 07
01:04:03.541 : :Chapter 08
01:12:21.333 : :Chapter 09
01:23:55.958 : :Chapter 10
01:33:57.958 : :Chapter 11
01:40:43.125 : :Chapter 12
x264 log
x264 [info]: frame I:999 Avg QP:17.98 size: 59816 PSNR Mean Y:45.27 U:48.29 V:48.12 Avg:46.03 Global:45.52
x264 [info]: frame P:42433 Avg QP:20.79 size: 25017 PSNR Mean Y:44.08 U:47.21 V:46.89 Avg:44.84 Global:44.23
x264 [info]: frame B:101604 Avg QP:22.62 size: 9062 PSNR Mean Y:43.12 U:46.58 V:46.24 Avg:43.94 Global:43.24
x264 [info]: consecutive B-frames: 5.8% 6.0% 15.0% 43.4% 14.6% 12.4% 1.4% 0.4% 0.3% 0.3% 0.2% 0.1% 0.3%
x264 [info]: mb I I16..4: 5.1% 70.0% 24.9%
x264 [info]: mb P I16..4: 1.5% 19.4% 3.4% P16..4: 27.0% 30.1% 11.3% 2.1% 0.2% skip: 4.9%
x264 [info]: mb B I16..4: 0.4% 3.0% 0.5% B16..8: 32.5% 22.1% 4.1% direct: 6.9% skip:30.5% L0:36.3% L1:41.8% BI:21.9%
x264 [info]: 8x8 transform intra:78.4% inter:67.5%
x264 [info]: direct mvs spatial:100.0% temporal:0.0%
x264 [info]: coded y,uvDC,uvAC intra: 81.6% 86.8% 60.5% inter: 27.7% 30.0% 8.0%
x264 [info]: i16 v,h,dc,p: 20% 15% 4% 61%
x264 [info]: i8 v,h,dc,ddl,ddr,vr,hd,vl,hu: 15% 9% 6% 8% 11% 13% 12% 12% 13%
x264 [info]: i4 v,h,dc,ddl,ddr,vr,hd,vl,hu: 17% 9% 5% 7% 13% 14% 12% 10% 11%
x264 [info]: i8c dc,h,v,p: 35% 24% 22% 19%
x264 [info]: Weighted P-Frames: Y:3.9% UV:2.5%
x264 [info]: ref P L0: 52.3% 17.3% 12.1% 4.2% 3.2% 2.2% 2.0% 1.2% 1.2% 0.9% 0.8% 0.7% 0.6% 0.6% 0.6% 0.1%
x264 [info]: ref B L0: 84.1% 6.8% 2.9% 1.5% 1.4% 0.7% 0.7% 0.4% 0.5% 0.3% 0.3% 0.3% 0.2% 0.1%
x264 [info]: ref B L1: 95.9% 4.1%
x264 [info]: SSIM Mean Y:0.9836594 (17.867db)
x264 [info]: PSNR Mean Y:43.417 U:46.776 V:46.442 Avg:44.213 Global:43.521 kb/s:2703.21
x264 [total]: encoded 145036 frames, 10.26 fps, 2703.22 kb/s
Screenshots Comparison
Source

Encode
Скачать

Скачать торрент!

Как скачивать? · Что такое торрент? · Рейтинг и ограничения

Сайт не распространяет и не хранит электронные версии произведений, а лишь предоставляет доступ к создаваемому пользователями каталогу ссылок на торрент-файлы, которые содержат только списки хеш-сумм

[Профиль] [ЛС]
Показать сообщения:    
Ответить на тему

Текущее время: Сегодня 04:10

Часовой пояс: GMT + 4



Вы не можете начинать темы
Вы не можете отвечать на сообщения
Вы не можете редактировать свои сообщения
Вы не можете удалять свои сообщения
Вы не можете голосовать в опросах
Вы не можете прикреплять файлы к сообщениям
Вы не можете скачивать файлы