Чудовищная ночь / Mischief Night (Трэвис С. Бэйкер / Travis Baker) [2014, США, ужасы, HDRip] VO (XixiDok)

Ответить на тему
 
Автор Сообщение

user ®

Стаж: 7 лет 7 месяцев

Сообщений: 20008

Пост Пост: #1 от 24-Май-2014 18:00

[Цитировать]

Чудовищная ночь / Mischief Night
Страна: США
Жанр: ужасы
Год выпуска: 2014
Продолжительность: 01:27:09
Перевод: Одноголосый закадровый XixiDok
Cубтитры: нет
Оригинальная аудиодорожка: нет
Режиссер: Трэвис С. Бэйкер / Travis Baker
В ролях: Брук Энн Смит, Марк Валера, Никки Лимо, Мэтт Энджел, Малкольм МакДауэлл, Эрик Палладино, Дэниэл Браун, Брэкстон Дэвис, Джордан Леви
Описание: Кейли, как большинство девочек ее возраста, подрабатывает детской сиделкой, ворует из кабинета ликер родителей, имеет поклонников. Единственное различие между Кейли и другими девушками в том, что мальчик, который любит ее, хочет ее убить.
Доп. информация:
Kinopoisk
IMDB
Sample
Качество видео: HDRip
Формат видео: AVI
Видео: Xvid 640x272 23.976fps 984 Kbps
Аудио: MP3 44100Hz stereo 192kbps
MediaInfo
General
Complete name : D:\Mischief.Night.2014.HDRip.avi
Format : AVI
Format/Info : Audio Video Interleave
File size : 739 MiB
Duration : 1h 27mn
Overall bit rate : 1 185 Kbps
Writing application : VirtualDubMod 1.5.10.3 (build 2550/release)
Writing library : VirtualDubMod build 2550/release
Video
ID : 0
Format : MPEG-4 Visual
Format profile : Advanced Simple@L5
Format settings, BVOP : Yes
Format settings, QPel : No
Format settings, GMC : No warppoints
Format settings, Matrix : Default (H.263)
Codec ID : XVID
Codec ID/Hint : XviD
Duration : 1h 27mn
Bit rate : 984 Kbps
Width : 640 pixels
Height : 272 pixels
Display aspect ratio : 2.35:1
Frame rate : 23.976 fps
Color space : YUV
Chroma subsampling : 4:2:0
Bit depth : 8 bits
Scan type : Progressive
Compression mode : Lossy
Bits/(Pixel*Frame) : 0.236
Stream size : 613 MiB (83%)
Writing library : XviD 65
Audio
ID : 1
Format : MPEG Audio
Format version : Version 1
Format profile : Layer 3
Codec ID : 55
Codec ID/Hint : MP3
Duration : 1h 27mn
Bit rate mode : Constant
Bit rate : 192 Kbps
Channel count : 2 channels
Sampling rate : 44.1 KHz
Compression mode : Lossy
Stream size : 120 MiB (16%)
Alignment : Split accross interleaves
Interleave, duration : 42 ms (1.00 video frame)
Interleave, preload duration : 500 ms
Скриншот c названием фильма Скриншоты
Скачать

Скачать торрент!

Как скачивать? · Что такое торрент? · Рейтинг и ограничения

Сайт не распространяет и не хранит электронные версии произведений, а лишь предоставляет доступ к создаваемому пользователями каталогу ссылок на торрент-файлы, которые содержат только списки хеш-сумм

[Профиль] [ЛС]
Показать сообщения:    
Ответить на тему

Текущее время: Сегодня 14:13

Часовой пояс: GMT + 4



Вы не можете начинать темы
Вы не можете отвечать на сообщения
Вы не можете редактировать свои сообщения
Вы не можете удалять свои сообщения
Вы не можете голосовать в опросах
Вы не можете прикреплять файлы к сообщениям
Вы не можете скачивать файлы