Тайна волшебной Тыквы / The Secret of the Magic Gourd / Bao hu lu de mi mi (Джон Чу, Фрэнки Чунг / John Chu, Frankie Chung) [2007, США, Гонконг, Китай, Приключения, детский, фэнтези, DVDRip] Dub (Disney)

Ответить на тему
 
Автор Сообщение

user ®

Стаж: 11 лет

Сообщений: 15151

Пост Пост: #1 от 24-Май-2014 02:45

[Цитировать]

Тайна волшебной Тыквы / The Secret of the Magic Gourd / Bao hu lu de mi mi
Страна: США, Гонконг, Китай
Жанр: Приключения, детский, фэнтези
Год выпуска: 2007
Продолжительность: 01:23:26
Перевод: Профессиональный (дублированный) Disney спасибо miha2154
Cубтитры: нет
Режиссер: Джон Чу, Фрэнки Чунг / John Chu, Frankie Chung
В ролях: Жу Кьилонг, Пейсы Чен, Чинг Ван Лау, Гиги Люн, Чи Йинг Чан
Описание: Ван Бао, великий фантазёр и неуч, однажды получает возможность облегчить свою участь незадачливого ученика с помощью магического существа, о котором он слышал только из бабушкиных сказок. Бао Ху Ло, Волшебная Тыква, это совершенное создание, исполняющее все ваши желания, если вам посчастливилось стать его Хозяином. Но одно дело слушать как всё просто в сказках, и совсем другое загадывать желания самому. Оказывается, недостаточно знать, чего ты хочешь, нужно ещё и суметь правильно пожелать, в противном случае, ваши желания могут обратиться против вас…
Сэмпл: http://multi-up.com/975676
Качество видео: DVDRip (Disneys.The.Secret.of.The.Magic.Gourd.2007.DVDRip.XviD-ViSiON)
Формат видео: AVI
Видео: XviD, 1046 Kbps, 688 х 304 pixels, 23.976 fps
Аудио: MP3, 128 Kbps, 2 channels, 48.0 KHz
MediaInfo
General
Complete name : D:\kirovtorrent\The.Secret.of.The.Magic.Gourd.2007.DVDRip.avi
Format : AVI
Format/Info : Audio Video Interleave
File size : 706 MiB
Duration : 1h 23mn
Overall bit rate : 1 183 Kbps
Writing application : VirtualDubMod 1.5.10.3 | www.virtualdub-fr.org || (build 2550/release)
Writing library : VirtualDubMod build 2550/release
Video
ID : 0
Format : MPEG-4 Visual
Format profile : Advanced Simple@L5
Format settings, BVOP : Yes
Format settings, QPel : No
Format settings, GMC : No warppoints
Format settings, Matrix : Custom
Codec ID : XVID
Codec ID/Hint : XviD
Duration : 1h 23mn
Bit rate : 1 046 Kbps
Width : 688 pixels
Height : 304 pixels
Display aspect ratio : 2.25:1
Frame rate : 23.976 fps
Color space : YUV
Chroma subsampling : 4:2:0
Bit depth : 8 bits
Scan type : Progressive
Compression mode : Lossy
Bits/(Pixel*Frame) : 0.209
Stream size : 624 MiB (88%)
Writing library : XviD 1.2.1 (UTC 2008-12-04)
Audio
ID : 1
Format : MPEG Audio
Format version : Version 1
Format profile : Layer 3
Mode : Joint stereo
Mode extension : MS Stereo
Codec ID : 55
Codec ID/Hint : MP3
Duration : 1h 23mn
Bit rate mode : Constant
Bit rate : 128 Kbps
Channel(s) : 2 channels
Sampling rate : 48.0 KHz
Compression mode : Lossy
Stream size : 76.4 MiB (11%)
Alignment : Aligned on interleaves
Interleave, duration : 42 ms (1.00 video frame)
Interleave, preload duration : 504 ms
Language : English
Скриншот c названием фильма Скриншоты
Скачать

Скачать торрент! Тайна волшебной Тыквы / The Secret of the Magic Gourd / Bao hu lu de mi mi (Джон Чу, Фрэнки Чунг / John Chu, Frankie Chung) [2007, США, Гонконг, Китай, Приключения, детский, фэнтези, DVDRip] Dub (Disney)

Как скачивать? · Что такое торрент? · Рейтинг и ограничения

Сайт не распространяет и не хранит электронные версии произведений, а лишь предоставляет доступ к создаваемому пользователями каталогу ссылок на торрент-файлы, которые содержат только списки хеш-сумм

[Профиль] [ЛС]
Показать сообщения:    
Ответить на тему

Текущее время: Сегодня 14:15

Часовой пояс: GMT + 4



Вы не можете начинать темы
Вы не можете отвечать на сообщения
Вы не можете редактировать свои сообщения
Вы не можете удалять свои сообщения
Вы не можете голосовать в опросах
Вы не можете прикреплять файлы к сообщениям
Вы не можете скачивать файлы