Черная роза / Black Rose (Александр Невский) [2014, США, Россия, триллер, WEB-DLRip] Dub

Ответить на тему
 
Автор Сообщение

user ®

Стаж: 7 лет 7 месяцев

Сообщений: 20008

Пост Пост: #1 от 23-Май-2014 23:35

[Цитировать]

Черная роза / Black Rose
Страна: США, Россия
Жанр: триллер
Год выпуска: 2014
Продолжительность: 01:22:59
Перевод: Профессиональный (дублированный)
Cубтитры: нет
Режиссер: Александр Невский
В ролях: Александр Невский, Кристанна Локен, Эдриан Пол, Роберт Дави, Роберт Мадрид, Маттиас Хьюз, Оксана Сидоренко, Эммануил Виторган, Ольга Родионова, Дмитрий Бикбаев
Описание: Майор московской полиции, отправляется в Лос-Анджелес для помощи местным стражам порядка в расследовании серии убийств русских эмигрантов. Вместе с американской напарницей российский полицейский начинает погоню за новым Джеком Потрошителем.
Сэмпл: http://multi-up.com/975552
Качество видео: WEB-DLRip
Формат видео: AVI
Видео: XviD, 1970 kb/s, 720x384, 24,000 кадра/сек
Аудио: AC3, 384 kb/s, (2 ch), 24,000 кадра/сек
MediaInfo
I:\Черная роза\Chernaya.Roza.2014.D.WEBRip.1400Mb.avi
General
Complete name : I:\Черная роза\Chernaya.Roza.2014.D.WEBRip.1400Mb.avi
Format : AVI
Format/Info : Audio Video Interleave
File size : 1.37 GiB
Duration : 1h 22mn
Overall bit rate : 2 364 Kbps
Writing application : VirtualDubMod 1.5.10.3 | www.virtualdub-fr.org || (build 2550/release)
Writing library : VirtualDubMod build 2550/release
Video #0
ID : 0
Format : MPEG-4 Visual
Format profile : Advanced Simple@L5
Format settings, BVOP : 2
Format settings, QPel : No
Format settings, GMC : No warppoints
Format settings, Matrix : Custom
Codec ID : XVID
Codec ID/Hint : XviD
Duration : 1h 22mn
Bit rate : 1 970 Kbps
Width : 720 pixels
Height : 384 pixels
Display aspect ratio : 1.85:1
Frame rate : 24.000 fps
Color space : YUV
Chroma subsampling : 4:2:0
Bit depth : 8 bits
Scan type : Progressive
Compression mode : Lossy
Bits/(Pixel*Frame) : 0.297
Stream size : 1.14 GiB (83%)
Writing library : XviD 1.2.1 (UTC 2008-12-04)
Audio #1
ID : 1
Format : AC-3
Format/Info : Audio Coding 3
Mode extension : CM (complete main)
Format settings, Endianness : Big
Codec ID : 2000
Duration : 1h 22mn
Bit rate mode : Constant
Bit rate : 384 Kbps
Channel count : 2 channels
Channel positions : Front: L R
Sampling rate : 48.0 KHz
Bit depth : 16 bits
Compression mode : Lossy
Stream size : 228 MiB (16%)
Alignment : Split accross interleaves
Interleave, duration : 42 ms (1.00 video frame)
Interleave, preload duration : 500 ms
Скриншот c названием фильма Скриншоты
Скачать

Скачать торрент!

Как скачивать? · Что такое торрент? · Рейтинг и ограничения

Сайт не распространяет и не хранит электронные версии произведений, а лишь предоставляет доступ к создаваемому пользователями каталогу ссылок на торрент-файлы, которые содержат только списки хеш-сумм

[Профиль] [ЛС]
Показать сообщения:    
Ответить на тему

Текущее время: Сегодня 08:58

Часовой пояс: GMT + 4



Вы не можете начинать темы
Вы не можете отвечать на сообщения
Вы не можете редактировать свои сообщения
Вы не можете удалять свои сообщения
Вы не можете голосовать в опросах
Вы не можете прикреплять файлы к сообщениям
Вы не можете скачивать файлы