Конг: Возвращение в джунгли / Kong: Return To The Jungle (Стюарт Эванс / Stewart Evans) [2006, приключения, семейный, DVDRip-AVC] Dub

Ответить на тему
 
Автор Сообщение

user ®

Стаж: 13 лет

Сообщений: 15041

Пост Пост: #1 от 23-Май-2014 12:15

[Цитировать]

Конг: Возвращение в джунгли / Kong: Return To The Jungle
Страна: Великобритания
Жанр: приключения, семейный
Продолжительность: 01:18:44
Год выпуска: 2006
Перевод: Профессиональный (дублированный)
Русские субтитры: нет
Режиссёр: Стюарт Эванс / Stewart Evans
Роли озвучивали: Дафна Голдрик, Сэффрон Хендерсон, Дэвид Кэй, Скотт МакНил, Кирби Морроу
Описание: Наш герой понимает, что он закован в клетке вместе с другими дикими животными острова Конг.
Их всех зовут в самый что ни есть настоящий зоопарк острова Манхеттен.
Если вы со страхом думаете, что наш Конг снова станет великой угрозой всему живому, как его предок, вы ошибаетесь! Это совсем не тот Конг!
Семпл: http://multi-up.com/975538
Качество: DVDRip-AVC
Формат: MKV
Видео: AVC, 768 x 576, ~1996 kbps, 25,000 кадров/сек
Аудио: AC-3, 6 ch, 448 kbps, 48,0 КГц
Субтитры: отсутствуют
Подробные технические данные
I:\Конг Возвращение в джунгли\kong_return_to_the_jungle (2006) DVD-AVC.mkv General Unique ID : 168348648403719580577546155723716462494 (0x7EA6C532C2870C1E037BA147C20E879E) Complete name : I:\Конг Возвращение в джунгли\kong_return_to_the_jungle (2006) DVD-AVC.mkv Format : Matroska Format version : Version 2 File size : 1.37 GiB Duration : 1h 18mn Overall bit rate mode : Variable Overall bit rate : 2 494 Kbps Writing application : Lavf51.12.1 Writing library : Lavf51.12.1 Video #1 ID : 1 Format : AVC Format/Info : Advanced Video Codec Format profile : Baseline@L3.1 Format settings, CABAC : No Format settings, ReFrames : 1 frame Format settings, GOP : M=1, N=12 Codec ID : V_MPEG4/ISO/AVC Duration : 1h 18mn Bit rate mode : Variable Bit rate : 1 996 Kbps Maximum bit rate : 2 940 Kbps Width : 768 pixels Height : 576 pixels Display aspect ratio : 4:3 Frame rate mode : Constant Frame rate : 25.000 fps Original frame rate : 24.000 fps Color space : YUV Chroma subsampling : 4:2:0 Bit depth : 8 bits Scan type : Progressive Bits/(Pixel*Frame) : 0.181 Stream size : 1.10 GiB (80%) Default : Yes Forced : No Audio #2 ID : 2 Format : AC-3 Format/Info : Audio Coding 3 Mode extension : CM (complete main) Format settings, Endianness : Big Codec ID : A_AC3 Duration : 1h 18mn Bit rate mode : Constant Bit rate : 448 Kbps Channel count : 6 channels Channel positions : Front: L C R, Side: L R, LFE Sampling rate : 48.0 KHz Bit depth : 16 bits Compression mode : Lossy Stream size : 252 MiB (18%) Default : Yes Forced : No
Скриншоты
Скачать

Скачать торрент! Конг: Возвращение в джунгли / Kong: Return To The Jungle (Стюарт Эванс / Stewart Evans) [2006, приключения, семейный, DVDRip-AVC] Dub

Как скачивать? · Что такое торрент? · Рейтинг и ограничения

Сайт не распространяет и не хранит электронные версии произведений, а лишь предоставляет доступ к создаваемому пользователями каталогу ссылок на торрент-файлы, которые содержат только списки хеш-сумм

[Профиль] [ЛС]
Показать сообщения:    
Ответить на тему

Текущее время: Сегодня 04:16

Часовой пояс: GMT + 4



Вы не можете начинать темы
Вы не можете отвечать на сообщения
Вы не можете редактировать свои сообщения
Вы не можете удалять свои сообщения
Вы не можете голосовать в опросах
Вы не можете прикреплять файлы к сообщениям
Вы не можете скачивать файлы