3 Дня На Убийство / 3 Days To Kill [Extended Cut] (Джозеф Макгинти Никол / Joseph McGinty Nichol) [2014, США, Франция, Греция, Россия, боевик, криминал, триллер, драма, комедия, BDRip-AVC] VO (Дмитрий Есарев) + Original (Eng) + Subs

Ответить на тему
 
Автор Сообщение

user ®

Стаж: 7 лет 7 месяцев

Сообщений: 20008

Пост Пост: #1 от 23-Май-2014 09:05

[Цитировать]

3 Дня На Убийство / 3 Days To Kill
[Расширенная версия / Extended Cut]
- Страна: США, Франция, Греция, Россия | 3DTK, EuropaCorp, Feelgood Entertainment,Paradise/MGN, Relativity Media, Wonderland Sound and Vision
Жанр: боевик, криминал, триллер, драма, комедия
Год выпуска: 2014
Продолжительность: 02:02:18.789 час.
Перевод: Одноголосый закадровый - Дмитрий Есарев
Субтитры: Русские (Full)
Оригинальная аудиодорожка: Английская
Режиссер: Джозеф Макгинти Никол / Joseph McGinty Nichol
В ролях: Кевин Костнер, Эмбер Хёрд, Хейли Стайнфелд, Конни Нильсен, Томас Лемаркус, Рихард Заммель, Марк Андреони, Бруно Риччи, Йонас Блоке, Эрик Эбони
Описание: В секретной лаборатории ученые разработали препарат, который позволяет человеку справиться с любой неизлечимой болезнью. Руководство спецслужб предлагает принять это лекарство экс-агенту спецслужб Итану Раннеру, которому врачи объявили смертельный диагноз. Но он должен выполнить еще одно задание, которое, впрочем, может стоить ему жизни. Теперь вокруг Раннера начинают происходить странные вещи. Что это — галлюцинации, побочный эффект от таблеток или мир действительно полон ужаса и кошмара?

Качество видео: BDRip-AVC | исх. 3 Days To Kill 2014 EXTENDED+THEATRICAL 1080p BluRay AVC DTS HD MA 5 1 PublicHD => Сэмпл
Формат видео: MKV
Релиз от RG MATROSKA
Автор рипа zOJIOtOi
Видео: 1152x488p (2.35:1), 23,976 fps, H.264 ~3 820 kbps avg, 0.277 bit/pixel
Аудио #1: 48 kHz, AC3, 3/2 (L,C,R,l,r) + LFE ch, ~448.00 kbps avg | Одноголосый закадровый) - Дмитрий Есарев
Аудио #2: 48 kHz, AC3, 3/2 (L,C,R,l,r) + LFE ch, ~448.00 kbps avg | Оригинал (английский)
Формат субтитров: softsub (SRT)
Дополнительная информация
Перевод Дмитрия Есарева доступен благодаря заказу - mihey10, работа со звуком - Perevodman.
MediaInfo | log x264
log x264
avs [info]: 1152x488p 1:1 @ 2997/125 fps (cfr)
x264 [info]: using SAR=1/1
x264 [info]: using cpu capabilities: MMX2 SSE2Fast SSSE3 SSE4.2 AVX
x264 [info]: profile High, level 4.1
x264 [info]: frame I:2182 Avg QP:14.18 size: 92300
x264 [info]: frame P:40076 Avg QP:15.79 size: 36780
x264 [info]: frame B:133697 Avg QP:17.53 size: 13679
x264 [info]: consecutive B-frames: 3.0% 3.2% 7.2% 30.5% 17.1% 27.3% 4.1% 3.9% 1.0% 1.2% 0.2% 0.9% 0.4%
x264 [info]: mb I I16..4: 8.5% 72.7% 18.8%
x264 [info]: mb P I16..4: 1.5% 17.6% 2.3% P16..4: 23.2% 28.0% 14.3% 3.0% 0.3% skip: 9.8%
x264 [info]: mb B I16..4: 0.3% 2.4% 0.3% B16..8: 29.9% 23.1% 6.0% direct: 6.8% skip:31.4% L0:41.7% L1:42.0% BI:16.3%
x264 [info]: 8x8 transform intra:80.8% inter:55.4%
x264 [info]: coded y,uvDC,uvAC intra: 87.7% 90.1% 79.2% inter: 29.6% 24.1% 9.3%
x264 [info]: i16 v,h,dc,p: 57% 9% 5% 28%
x264 [info]: i8 v,h,dc,ddl,ddr,vr,hd,vl,hu: 13% 8% 11% 9% 11% 12% 11% 12% 12%
x264 [info]: i4 v,h,dc,ddl,ddr,vr,hd,vl,hu: 15% 10% 10% 8% 13% 12% 11% 10% 11%
x264 [info]: i8c dc,h,v,p: 46% 20% 18% 16%
x264 [info]: Weighted P-Frames: Y:3.9% UV:2.4%
x264 [info]: ref P L0: 47.7% 11.3% 16.4% 6.2% 4.9% 3.3% 2.8% 1.6% 1.6% 1.2% 1.0% 0.9% 0.9% 0.1% 0.0%
x264 [info]: ref B L0: 74.6% 11.1% 5.1% 2.6% 1.9% 1.4% 1.1% 0.7% 0.6% 0.5% 0.3% 0.1%
x264 [info]: ref B L1: 93.4% 6.6%
x264 [info]: kb/s:3819.94
x264 [total]: encoded 175955 frames, 1.81 fps, 3819.94 kb/s
Общее
Уникальный идентификатор : 214802393643478723361239927762352361768 (0xA1996FAB177D4EFAAB17F42FB6A85128)
Полное имя : D:\my rips\3.Days.to.Kill.Extended.Cut.2014.BDRip-AVC.Rus.Eng.Subs.by.zOJIOtOi.mkv
Формат : Matroska
Версия формата : Version 4 / Version 2
Размер файла : 4,03 Гбайт
Продолжительность : 2 ч. 2 м.
Общий поток : 4718 Кбит/сек
Дата кодирования : UTC 2014-05-22 12:42:42
Программа кодирования : mkvmerge v6.1.0 ('Old Devil') built on Mar 4 2013 09:10:42
Библиотека кодирования : libebml v1.3.0 + libmatroska v1.4.0
Видео
Идентификатор : 1
Формат : AVC
Формат/Информация : Advanced Video Codec
Профиль формата : High@L4.1
Параметр CABAC формата : Да
Параметр ReFrames формата : 13 кадров
Идентификатор кодека : V_MPEG4/ISO/AVC
Продолжительность : 2 ч. 2 м.
Битрейт : 3728 Кбит/сек
Ширина : 1152 пикселя
Высота : 488 пикселей
Соотношение сторон : 2,35:1
Режим частоты кадров : Постоянный
Частота кадров : 23,976 кадра/сек
Цветовое пространство : YUV
Субдискретизация насыщенности : 4:2:0
Битовая глубина : 8 бит
Тип развёртки : Прогрессивная
Бит/(Пиксели*Кадры) : 0.277
Размер потока : 3,19 Гбайт (79%)
Заголовок : 3.Days.to.Kill.Extended.Cut.2014.BDRip-AVC.by.zOJIOtOi
Библиотека кодирования : x264 core 130 r2273 b3065e6
Настройки программы : cabac=1 / ref=13 / deblock=1:-3:-3 / analyse=0x3:0x133 / me=umh / subme=11 / psy=1 / psy_rd=1.00:0.00 / mixed_ref=1 / me_range=48 / chroma_me=1 / trellis=2 / 8x8dct=1 / cqm=0 / deadzone=21,11 / fast_pskip=1 / chroma_qp_offset=-2 / threads=6 / lookahead_threads=1 / sliced_threads=0 / nr=0 / decimate=1 / interlaced=0 / bluray_compat=0 / constrained_intra=0 / bframes=12 / b_pyramid=2 / b_adapt=2 / b_bias=0 / direct=1 / weightb=1 / open_gop=0 / weightp=2 / keyint=240 / keyint_min=23 / scenecut=40 / intra_refresh=0 / rc_lookahead=60 / rc=crf / mbtree=0 / crf=16.6 / qcomp=0.70 / qpmin=0 / qpmax=69 / qpstep=4 / vbv_maxrate=50000 / vbv_bufsize=62500 / crf_max=0.0 / nal_hrd=none / ip_ratio=1.40 / pb_ratio=1.25 / aq=1:1.00
Язык : English
Default : Да
Forced : Нет
Аудио #1
Идентификатор : 2
Формат : AC-3
Формат/Информация : Audio Coding 3
Расширение режима : CM (complete main)
Параметр Endianness формата : Big
Идентификатор кодека : A_AC3
Продолжительность : 2 ч. 2 м.
Вид битрейта : Постоянный
Битрейт : 448 Кбит/сек
Каналы : 6 каналов
Расположение каналов : Front: L C R, Side: L R, LFE
Частота : 48,0 КГц
Битовая глубина : 16 бит
Метод сжатия : С потерями
Размер потока : 392 Мбайт (9%)
Заголовок : Авторский | DD 5.1 @ 448 kbps - Дмитрий Есарев
Язык : Russian
Default : Да
Forced : Нет
Аудио #2
Идентификатор : 3
Формат : AC-3
Формат/Информация : Audio Coding 3
Расширение режима : CM (complete main)
Параметр Endianness формата : Big
Идентификатор кодека : A_AC3
Продолжительность : 2 ч. 2 м.
Вид битрейта : Постоянный
Битрейт : 448 Кбит/сек
Каналы : 6 каналов
Расположение каналов : Front: L C R, Side: L R, LFE
Частота : 48,0 КГц
Битовая глубина : 16 бит
Метод сжатия : С потерями
Размер потока : 392 Мбайт (9%)
Заголовок : Оригинал (английский) | DD 5.1 @ 448 kbps
Язык : English
Default : Нет
Forced : Нет
Текст
Идентификатор : 4
Формат : UTF-8
Идентификатор кодека : S_TEXT/UTF8
Идентификатор кодека/Информация : UTF-8 Plain Text
Заголовок : Full
Язык : Russian
Default : Да
Forced : Нет
Меню
00:00:00.000 : en:00:00:00.000
00:03:35.132 : en:00:03:35.132
00:06:58.543 : en:00:06:58.543
00:10:56.573 : en:00:10:56.573
00:16:00.710 : en:00:16:00.710
00:20:51.709 : en:00:20:51.709
00:25:05.963 : en:00:25:05.963
00:29:24.346 : en:00:29:24.346
00:34:20.392 : en:00:34:20.392
00:37:46.806 : en:00:37:46.806
00:40:27.300 : en:00:40:27.300
00:44:05.226 : en:00:44:05.226
00:49:24.795 : en:00:49:24.795
00:53:16.443 : en:00:53:16.443
00:57:40.874 : en:00:57:40.874
01:08:28.396 : en:01:08:28.396
01:13:37.621 : en:01:13:37.621
01:19:51.828 : en:01:19:51.828
01:25:59.070 : en:01:25:59.070
01:32:28.167 : en:01:32:28.167
01:39:10.569 : en:01:39:10.569
01:42:49.413 : en:01:42:49.413
01:51:49.452 : en:01:51:49.452
01:54:55.597 : en:01:54:55.597
Source vs Rip Скриншот c названием фильма Скриншоты
Скачать

Скачать торрент!

Как скачивать? · Что такое торрент? · Рейтинг и ограничения

Сайт не распространяет и не хранит электронные версии произведений, а лишь предоставляет доступ к создаваемому пользователями каталогу ссылок на торрент-файлы, которые содержат только списки хеш-сумм

[Профиль] [ЛС]
Показать сообщения:    
Ответить на тему

Текущее время: Сегодня 00:12

Часовой пояс: GMT + 4



Вы не можете начинать темы
Вы не можете отвечать на сообщения
Вы не можете редактировать свои сообщения
Вы не можете удалять свои сообщения
Вы не можете голосовать в опросах
Вы не можете прикреплять файлы к сообщениям
Вы не можете скачивать файлы