Извратная маска / Маска извращенца / Трусонюх / Хентай Камен / HK Hentai Kamen (Юити Фукуда / Yuuichi Fukuda) [2013, Япония, комедия, боевик, комикс, HDRip] VO (den904)

Ответить на тему
 
Автор Сообщение

user ®

Стаж: 11 лет

Сообщений: 15151

Пост Пост: #1 от 22-Май-2014 10:35

[Цитировать]

Извратная маска / Маска извращенца / Трусонюх / Хентай Камен / HK Hentai Kamen- -Страна: Япония
Жанр: комедия, боевик, комикс
Год выпуска: 2013
Продолжительность: 01:45:33-Перевод: Одноголосый закадровый [den904]-Cубтитры: нет
Оригинальная аудиодорожка: нет
Режиссер: Юити Фукуда / Yuuichi Fukuda
В ролях: Рёхэй Судзуки, Сюнсукэ Дайто, Наруси Икеда, Нана Катасе, Цуёси Муро, Шун Огури, Ёсинори Окада, Джиро Сато, Фумика Симидзу, Такаши Цукамото...
Описание: Ученик средней школы Сикидзо Кёсуки является самым талантливым членом клуба кэмпо. Его покойный отец был детективом, и парень разделяет сильное чувство правосудия свего отца. Однажды, он спасает от хулиганов девушку по имени Химено Айко, в которую влюбляется с первого взгляда, но сбегает неузнанным ею. Когда при ограблении банка группа преступников взяла в заложники Айко, Кёсуке снова кидается спасти девушку, а чтобы не быть узнанным преступниками, парню надо скрыть лицо. Но, когда он случайно, вместо обычной маски, надевает на голову женские трусики, то с ним случается трансформация. Ведь он смог пробудить 100% скрытого потенциала своего тела и стать супер героем. Это необычная трансформация была передана ему на генном уровне от его родителей (а ведь семейка та еще: отец - мазохист, а мать - садистка). Кёсуке использует свою силу "Маски извращенца", чтобы победить преступников и сохранить любимую. Однако, парень не знает, что его неприятности только начались...
Релиз от -
Качество видео: HDRip
Формат видео: AVI
Видео: MPEG-4 Visual at 848 Кбит/сек; 688 x 384 (1.792) at 23.976 fps
Аудио: MPEG Audio at 128 Кбит/сек; 2 канала, 48,0 КГц
Автор:
MediaInfo
Общее
Полное имя : D:\Фильмы\Азиатские\Извратная маска\HK Hentai Kamen.2013.HDRip.XviD.745MB. rip by [Assassin's Creed].avi
Формат : AVI
Формат/Информация : Audio Video Interleave
Размер файла : 744 Мбайт
Продолжительность : 1 ч. 45 м.
Общий поток : 985 Кбит/сек
Программа кодирования : VirtualDubMod 1.5.10.3 | www.virtualdub-fr.org || (build 2550/release)
Библиотека кодирования : VirtualDubMod build 2550/release
Видео
Идентификатор : 0
Формат : MPEG-4 Visual
Профиль формата : Advanced Simple@L5
Параметр BVOP формата : 2
Параметр QPel формата : Нет
Параметр GMC формата : Без точки перехода
Параметр матрицы формата : Default (H.263)
Идентификатор кодека : XVID
Идентификатор кодека/Подсказка : XviD
Продолжительность : 1 ч. 45 м.
Битрейт : 848 Кбит/сек
Ширина : 688 пикселей
Высота : 384 пикселя
Соотношение сторон : 16:9
Частота кадров : 23,976 кадра/сек
Цветовое пространство : YUV
Субдискретизация насыщенности : 4:2:0
Битовая глубина : 8 бит
Тип развёртки : Прогрессивная
Метод сжатия : С потерями
Бит/(Пиксели*Кадры) : 0.134
Размер потока : 640 Мбайт (86%)
Библиотека кодирования : XviD 1.2.1 (UTC 2008-12-04)
Аудио
Идентификатор : 1
Формат : MPEG Audio
Версия формата : Version 1
Профиль формата : Layer 3
Идентификатор кодека : 55
Идентификатор кодека/Подсказка : MP3
Продолжительность : 1 ч. 45 м.
Вид битрейта : Постоянный
Битрейт : 128 Кбит/сек
Каналы : 2 канала
Частота : 48,0 КГц
Метод сжатия : С потерями
Размер потока : 96,6 Мбайт (13%)
Выравнивание : Соединение по промежуткам
Продолжительность промежутка : 42 мс. (1,00 видеокадр)
Время предзагрузки промежутка : 504 мс.
Библиотека кодирования : LAME3.99r
Настройки программы : -m s -V 4 -q 2 -lowpass 17 -b 128
Скриншот c названием фильма Скриншоты
Скачать

Скачать торрент! Извратная маска / Маска извращенца / Трусонюх / Хентай Камен / HK Hentai Kamen (Юити Фукуда / Yuuichi Fukuda) [2013, Япония, комедия, боевик, комикс, HDRip] VO (den904)

Как скачивать? · Что такое торрент? · Рейтинг и ограничения

Сайт не распространяет и не хранит электронные версии произведений, а лишь предоставляет доступ к создаваемому пользователями каталогу ссылок на торрент-файлы, которые содержат только списки хеш-сумм

[Профиль] [ЛС]
Показать сообщения:    
Ответить на тему

Текущее время: Сегодня 20:00

Часовой пояс: GMT + 4



Вы не можете начинать темы
Вы не можете отвечать на сообщения
Вы не можете редактировать свои сообщения
Вы не можете удалять свои сообщения
Вы не можете голосовать в опросах
Вы не можете прикреплять файлы к сообщениям
Вы не можете скачивать файлы