Джек Райан: Теория хаоса / Jack Ryan: Shadow Recruit (Кеннет Брана / Kenneth Branagh) [2014, США, Россия, боевик, триллер, криминал, детектив, BDRip] Dub + Original + subs (full pack)

Ответить на тему
 
Автор Сообщение

user ®

Стаж: 7 лет 7 месяцев

Сообщений: 20008

Пост Пост: #1 от 22-Май-2014 04:15

[Цитировать]

Джек Райан: Теория хаоса / Jack Ryan: Shadow Recruit- Год выпуска: 2014
Выпущено: США, Россия
Жанр: боевик, триллер, криминал, детектив
Продолжительность: 01:45:32
Перевод: Профессиональный (полное дублирование) CEE
+ Оригинальная звуковая дорожка
Субтитры: Русские (полные, форсированные), английские (обычные, SDH), украинские (полные, форсированные) (внешние srt*)-Режиссер: Кеннет Брана / Kenneth Branagh
В ролях: Крис Пайн, Кира Найтли, Кеннет Брана, Кевин Костнер, Алек Утгофф, Джемма Чан, Петер Андерссон, Елена Великанова, Нонсо Анози, Колм Фиор
О фильме: Рядовой аналитик ЦРУ Джек Райан приезжает в Москву, чтобы решить простую задачу: ему нужно проверить операции компании, принадлежащей миллиардеру Виктору Черевину. Но все усложняется, когда Райана пытаются убить. Теперь он вынужден защищаться с оружием в руках, вспоминая армейские навыки и неожиданно для себя оказываясь в роли настоящего спецагента. На помощь Джеку приходят маститый офицер спецслужб Харпер и внезапно оказавшаяся в Москве супруга Кэти. Но облегчит ли это миссию, которую теперь предстоит выполнить Райану, — предотвратить международный заговор, грозящий погрузить весь мир в хаос?
Релиз:
Автор: yaroslaigor
Качество: BDRip (источник: / Blu-ray CEE / 1080p)
Формат: AVI
Видео: 720x304 (2.37:1), 23.976 fps, XviD build 65 ~2059 kbps avg, 0.39 bit/pixel
Аудио #1: 48 kHz, AC3 Dolby Digital, 3/2 (L,C,R,l,r) + LFE ch, ~448.00 kbps avg rus
Аудио #2: 48 kHz, AC3 Dolby Digital, 3/2 (L,C,R,l,r) + LFE ch, ~448.00 kbps avg eng
Размер: 2235.84 Mb (1/2 DVD-R)
Скачать: Сэмпл-

Кадры из фильма
-
Mi
Формат : AVI
Формат/Информация : Audio Video Interleave
Размер файла : 2,18 Гбайт
Продолжительность : 1 ч. 45 м.
Общий поток : 2962 Кбит/сек
Название фильма : Джек Райан: Теория хаоса / Jack Ryan: Shadow Recruit (2014) BDRip
Режиссёр : yaroslaigor
Жанр : боевик, триллер, криминал
Программа кодирования : VirtualDubMod 1.5.10.2 (build 2542/release)
Примечание : 21.05.2014
Видео
Идентификатор : 0
Формат : MPEG-4 Visual
Профиль формата : Advanced Simple@L5
Параметр BVOP формата : 1
Параметр QPel формата : Нет
Параметр GMC формата : Без точки перехода
Параметр матрицы формата : Выборочная
Идентификатор кодека : XVID
Идентификатор кодека/Подсказка : XviD
Продолжительность : 1 ч. 45 м.
Битрейт : 1938 Кбит/сек
Ширина : 720 пикселей
Высота : 304 пикселя
Соотношение сторон : 2,35:1
Частота кадров : 23,976 кадра/сек
Цветовое пространство : YUV
Субдискретизация насыщенности : 4:2:0
Битовая глубина : 8 бит
Тип развёртки : Прогрессивная
Метод сжатия : С потерями
Бит/(Пиксели*Кадры) : 0.369
Размер потока : 1,43 Гбайт (65%)
Библиотека кодирования : XviD 65
Аудио #1
Идентификатор : 1
Формат : AC-3
Формат/Информация : Audio Coding 3
Расширение режима : CM (complete main)
Параметр Endianness формата : Big
Идентификатор кодека : 2000
Продолжительность : 1 ч. 45 м.
Вид битрейта : Постоянный
Битрейт : 448 Кбит/сек
Каналы : 6 каналов
Расположение каналов : Front: L C R, Side: L R, LFE
Частота : 48,0 КГц
Битовая глубина : 16 бит
Метод сжатия : С потерями
Размер потока : 338 Мбайт (15%)
Выравнивание : Разделение по промежуткам
Аудио #2
Идентификатор : 2
Формат : AC-3
Формат/Информация : Audio Coding 3
Расширение режима : CM (complete main)
Параметр Endianness формата : Big
Идентификатор кодека : 2000
Продолжительность : 1 ч. 45 м.
Вид битрейта : Постоянный
Битрейт : 448 Кбит/сек
Каналы : 6 каналов
Расположение каналов : Front: L C R, Side: L R, LFE
Частота : 48,0 КГц
Битовая глубина : 16 бит
Метод сжатия : С потерями
Размер потока : 338 Мбайт (15%)
Выравнивание : Разделение по промежуткам
-
Скачать

Скачать торрент!

Как скачивать? · Что такое торрент? · Рейтинг и ограничения

Сайт не распространяет и не хранит электронные версии произведений, а лишь предоставляет доступ к создаваемому пользователями каталогу ссылок на торрент-файлы, которые содержат только списки хеш-сумм

[Профиль] [ЛС]
Показать сообщения:    
Ответить на тему

Текущее время: Сегодня 00:38

Часовой пояс: GMT + 4



Вы не можете начинать темы
Вы не можете отвечать на сообщения
Вы не можете редактировать свои сообщения
Вы не можете удалять свои сообщения
Вы не можете голосовать в опросах
Вы не можете прикреплять файлы к сообщениям
Вы не можете скачивать файлы