Стукач / Snitch (Рик Роман Во / Ric Roman Waugh) [2013, США, ОАЭ, боевик, триллер, драма, BDRip 1080p] Dub + AVO Гаврилов + Original Eng + Sub Rus, Eng

Ответить на тему
 
Автор Сообщение

user ®

Стаж: 7 лет 7 месяцев

Сообщений: 20008

Пост Пост: #1 от 21-Май-2014 23:20

[Цитировать]

Стукач / Snitch- Страна: США, ОАЭ
Жанр: боевик, триллер, драма
Год выпуска: 2013
Продолжительность: 01:51:52
Перевод: Профессиональный (дублированный)
Cубтитры: русские (полные), английские (полные)
Оригинальная аудиодорожка: английский-Режиссер: Рик Роман Во / Ric Roman Waugh
В ролях: Дуэйн Джонсон, Барри Пеппер, Джон Бернтал, Сьюзен Сарандон, Майкл К. Уильямс, Рафи Гаврон, Мелина Канакаредес, Надин Веласкес, Бенджамин Брэтт, Лела Лорен.
Описание: Джейсон Колинз — молодой парень, нашедший на свою голову очень большие неприятности. Работники полиции задержали его с пакетом наркотиков, и юноше грозит тюремное заключение на долгое время. Ему собираются дать минимальный срок, так как он не разу не нарушал закон, однако десять лет тоже очень много. У Джейсона появляется только один шанс не угодить за решетку. Его отец Джон соглашается на сделку с организацией по борьбе с наркотиками. Он должен внедриться в банду наркоторговцев и сдать полиции их босса. В случае успеха этой операции Джейсона выпустят на свободу. Однако роль стукача очень опасна, ведь в случае провала может пострадать вся их семья. Оказавшись в банде, Джон просто не имеет права даже на малейшую ошибку...-Тип релиза: BDRip 1080p
Контейнер: MKV | Sample
Видео: 1920x800 (2.40:1), 23.976 fps, x264@L4.1 ~9850 kbps avg
Аудио 1: Russian 48 kHz, DTS, 3/2 (L,C,R,l,r) + LFE ch, 1509.00 kbps avg | Blu-ray
Аудио 2: Russian 48 kHz, DTS, 3/2 (L,C,R,l,r) + LFE ch, 1509.00 kbps avg | AVO Гаврилов
Аудио 3: English 48 kHz, DTS, 3/2 (L,C,R,l,r) + LFE ch, 1509.00 kbps avg | Original

Скриншоты Медиаинфо
Общее
Формат : Matroska
Версия формата : Version 4 / Version 2
Размер файла : 11,2 Гбайт
Продолжительность : 1 ч. 51 м.
Общий поток : 14,4 Мбит/сек
Название фильма : Snitch 2013
Дата кодирования : UTC 2014-05-19 19:01:26
Программа кодирования : mkvmerge v6.1.0 ('Old Devil') built on Mar 4 2013 09:10:42
Библиотека кодирования : libebml v1.3.0 + libmatroska v1.4.0
Видео
Идентификатор : 1
Формат : AVC
Формат/Информация : Advanced Video Codec
Профиль формата : High@L4.1
Параметр CABAC формата : Да
Параметр ReFrames формата : 5 кадров
Идентификатор кодека : V_MPEG4/ISO/AVC
Продолжительность : 1 ч. 51 м.
Битрейт : 9850 Кбит/сек
Ширина : 1920 пикселей
Высота : 800 пикселей
Соотношение сторон : 2,40:1
Режим частоты кадров : Постоянный
Частота кадров : 23,976 кадра/сек
Цветовое пространство : YUV
Субдискретизация насыщенности : 4:2:0
Битовая глубина : 8 бит
Тип развёртки : Прогрессивная
Бит/(Пиксели*Кадры) : 0.267
Размер потока : 7,47 Гбайт (67%)
Заголовок : BDRip 1080p
Библиотека кодирования : x264 core 132 r2310 76a5c3a
Настройки программы : cabac=1 / ref=5 / deblock=1:-3:-3 / analyse=0x3:0x133 / me=tesa / subme=11 / psy=1 / psy_rd=1.05:0.00 / mixed_ref=1 / me_range=24 / chroma_me=1 / trellis=2 / 8x8dct=1 / cqm=0 / deadzone=21,11 / fast_pskip=1 / chroma_qp_offset=-2 / threads=12 / lookahead_threads=2 / sliced_threads=0 / nr=0 / decimate=1 / interlaced=0 / bluray_compat=0 / constrained_intra=0 / bframes=8 / b_pyramid=2 / b_adapt=2 / b_bias=0 / direct=3 / weightb=1 / open_gop=0 / weightp=2 / keyint=240 / keyint_min=23 / scenecut=40 / intra_refresh=0 / rc=2pass / mbtree=0 / bitrate=9850 / ratetol=1.0 / qcomp=0.60 / qpmin=10 / qpmax=69 / qpstep=4 / cplxblur=20.0 / qblur=0.5 / ip_ratio=1.40 / pb_ratio=1.30 / aq=2:0.75
Язык : English
Default : Да
Forced : Нет
Аудио #1
Идентификатор : 2
Формат : DTS
Формат/Информация : Digital Theater Systems
Режим : 16
Параметр Endianness формата : Big
Идентификатор кодека : A_DTS
Продолжительность : 1 ч. 51 м.
Вид битрейта : Постоянный
Битрейт : 1509 Кбит/сек
Каналы : 6 каналов
Расположение каналов : Front: L C R, Side: L R, LFE
Частота : 48,0 КГц
Битовая глубина : 16 бит
Метод сжатия : С потерями
Размер потока : 1,18 Гбайт (10%)
Заголовок : Blu-ray
Язык : Russian
Default : Да
Forced : Нет
Аудио #2
Идентификатор : 3
Формат : DTS
Формат/Информация : Digital Theater Systems
Режим : 16
Параметр Endianness формата : Big
Идентификатор кодека : A_DTS
Продолжительность : 1 ч. 51 м.
Вид битрейта : Постоянный
Битрейт : 1509 Кбит/сек
Каналы : 6 каналов
Расположение каналов : Front: L C R, Side: L R, LFE
Частота : 48,0 КГц
Битовая глубина : 24 бит
Метод сжатия : С потерями
Размер потока : 1,18 Гбайт (10%)
Заголовок : AVO А.Гаврилов
Язык : Russian
Default : Нет
Forced : Нет
Аудио #3
Идентификатор : 4
Формат : DTS
Формат/Информация : Digital Theater Systems
Режим : 16
Параметр Endianness формата : Big
Идентификатор кодека : A_DTS
Продолжительность : 1 ч. 51 м.
Вид битрейта : Постоянный
Битрейт : 1509 Кбит/сек
Каналы : 6 каналов
Расположение каналов : Front: L C R, Side: L R, LFE
Частота : 48,0 КГц
Битовая глубина : 24 бит
Метод сжатия : С потерями
Размер потока : 1,18 Гбайт (10%)
Заголовок : Original
Язык : English
Default : Нет
Forced : Нет
Текст #1
Идентификатор : 5
Формат : UTF-8
Идентификатор кодека : S_TEXT/UTF8
Идентификатор кодека/Информация : UTF-8 Plain Text
Заголовок : Full
Язык : Russian
Default : Нет
Forced : Нет
Текст #2
Идентификатор : 6
Формат : UTF-8
Идентификатор кодека : S_TEXT/UTF8
Идентификатор кодека/Информация : UTF-8 Plain Text
Заголовок : Full
Язык : English
Default : Нет
Forced : Нет
Меню
00:00:00.000 : en:00:00:00.000
00:06:18.086 : en:00:06:18.086
00:14:02.717 : en:00:14:02.717
00:21:29.747 : en:00:21:29.747
00:29:44.700 : en:00:29:44.700
00:34:28.984 : en:00:34:28.984
00:42:36.179 : en:00:42:36.179
00:49:18.831 : en:00:49:18.831
00:56:31.638 : en:00:56:31.638
01:00:53.108 : en:01:00:53.108
01:10:01.572 : en:01:10:01.572
01:18:55.272 : en:01:18:55.272
01:24:05.374 : en:01:24:05.374
01:31:21.559 : en:01:31:21.559
01:38:40.540 : en:01:38:40.540
01:45:56.600 : en:01:45:56.600
Скачать

Скачать торрент!

Как скачивать? · Что такое торрент? · Рейтинг и ограничения

Сайт не распространяет и не хранит электронные версии произведений, а лишь предоставляет доступ к создаваемому пользователями каталогу ссылок на торрент-файлы, которые содержат только списки хеш-сумм

[Профиль] [ЛС]
Показать сообщения:    
Ответить на тему

Текущее время: Сегодня 08:10

Часовой пояс: GMT + 4



Вы не можете начинать темы
Вы не можете отвечать на сообщения
Вы не можете редактировать свои сообщения
Вы не можете удалять свои сообщения
Вы не можете голосовать в опросах
Вы не можете прикреплять файлы к сообщениям
Вы не можете скачивать файлы