Приключения мистера Пибоди и Шермана / Mr. Peabody & Sherman (Роб Минкофф / Rob Minkoff) [2014, фантастика, комедия, приключения, семейный, WEB-DLRip] Dub

Ответить на тему
 
Автор Сообщение

user ®

Стаж: 13 лет

Сообщений: 15041

Пост Пост: #1 от 21-Май-2014 09:00

[Цитировать]

Приключения мистера Пибоди и Шермана / Mr. Peabody & Sherman
Страна: США
Жанр: фантастика, комедия, приключения, семейный
Продолжительность: 01:32:28
Год выпуска: 2014
Перевод: Профессиональный (дублированный)
Русские субтитры: нет
Режиссёр: Роб Минкофф / Rob Minkoff
Роли озвучивали: Александр Якин, Людмила Артемьева, Михаил Башкатов, Роман Юнусов, Федор Добронравов
Описание: Мистер Пибоди — бизнесмен, изобретатель, ученый, нобелевский лауреат, гурман, двукратный олимпийский чемпион и гений… который кроме всего прочего является собакой. При помощи своего самого неординарного изобретения — машины ВЕЙБЕК — мистер Пибоди и его приемный сын Шерман мгновенно перемещаются в прошлое, где становятся свидетелями самых важных исторических событий и общаются с известными историческими персонажами. Но когда Шерман нарушает правила путешествий во времени, нашим героям приходится вновь отправиться в путь — на сей раз с целью восстановления цепи исторических событий и спасения будущего. Кроме того, мистеру Пибоди предстоит справиться с самой сложной для него задачей — стать настоящим отцом для Шермана.
Семпл: http://multi-up.com/975048
Качество: WEB-DLRip
Формат: AVI
Видео: XviD, 1980 kb/s, 720x400, 25,000 кадров/сек
Аудио: AC3, 128 kb/s (2 ch), 48,0 КГц
Субтитры: отсутствуют
Подробные технические данные
I:\Приключения мистера Пибоди и Шермана\P1b0dy.i.Sherman.2014.D.WEB-DLRip.1400MB.avi General Complete name : I:\Приключения мистера Пибоди и Шермана\P1b0dy.i.Sherman.2014.D.WEB-DLRip.1400MB.avi Format : AVI Format/Info : Audio Video Interleave File size : 1.37 GiB Duration : 1h 32mn Overall bit rate : 2 117 Kbps Writing application : VirtualDubMod 1.5.10.2 (build 2540/release) Writing library : VirtualDubMod build 2540/release Video #0 ID : 0 Format : MPEG-4 Visual Format profile : Advanced Simple@L5 Format settings, BVOP : 2 Format settings, QPel : No Format settings, GMC : No warppoints Format settings, Matrix : Default (H.263) Codec ID : XVID Codec ID/Hint : XviD Duration : 1h 32mn Bit rate : 1 979 Kbps Width : 720 pixels Height : 400 pixels Display aspect ratio : 16:9 Frame rate : 25.000 fps Color space : YUV Chroma subsampling : 4:2:0 Bit depth : 8 bits Scan type : Progressive Compression mode : Lossy Bits/(Pixel*Frame) : 0.275 Stream size : 1.28 GiB (93%) Writing library : XviD 1.2.1 (UTC 2008-12-04) Audio #1 ID : 1 Format : AC-3 Format/Info : Audio Coding 3 Mode extension : CM (complete main) Format settings, Endianness : Big Codec ID : 2000 Duration : 1h 32mn Bit rate mode : Constant Bit rate : 128 Kbps Channel count : 2 channels Channel positions : Front: L R Sampling rate : 48.0 KHz Bit depth : 16 bits Compression mode : Lossy Stream size : 84.7 MiB (6%) Alignment : Split accross interleaves Interleave, duration : 40 ms (1.00 video frame) Interleave, preload duration : 500 ms
Скриншоты
Скачать

Скачать торрент! Приключения мистера Пибоди и Шермана / Mr. Peabody & Sherman (Роб Минкофф / Rob Minkoff) [2014, фантастика, комедия, приключения, семейный, WEB-DLRip] Dub

Как скачивать? · Что такое торрент? · Рейтинг и ограничения

Сайт не распространяет и не хранит электронные версии произведений, а лишь предоставляет доступ к создаваемому пользователями каталогу ссылок на торрент-файлы, которые содержат только списки хеш-сумм

[Профиль] [ЛС]
Показать сообщения:    
Ответить на тему

Текущее время: Сегодня 23:34

Часовой пояс: GMT + 4



Вы не можете начинать темы
Вы не можете отвечать на сообщения
Вы не можете редактировать свои сообщения
Вы не можете удалять свои сообщения
Вы не можете голосовать в опросах
Вы не можете прикреплять файлы к сообщениям
Вы не можете скачивать файлы