Извратная маска / Маска извращенца / Трусонюх / Хентай Камен / HK Hentai Kamen (Юити Фукуда / Yuuichi Fukuda) [2013, Япония, комедия, боевик, комикс, HDRip] VO (den904) + Original JPN + Subs (Rus, Eng, Ger)

Ответить на тему
 
Автор Сообщение

user ®

Стаж: 13 лет

Сообщений: 15071

Пост Пост: #1 от 21-Май-2014 09:00

[Цитировать]

Извратная маска / Маска извращенца / Трусонюх / Хентай Камен / HK Hentai Kamen- -Страна: Япония
Жанр: комедия, боевик, комикс
Год выпуска: 2013
Продолжительность: 01:45:33-Перевод: Одноголосый закадровый [den904]-Cубтитры: русские, английские, немецкие [отдельно]
Оригинальная аудиодорожка: японская
Режиссер: Юити Фукуда / Yuuichi Fukuda
В ролях: Рёхэй Судзуки, Сюнсукэ Дайто, Наруси Икеда, Нана Катасе, Цуёси Муро, Шун Огури, Ёсинори Окада, Джиро Сато, Фумика Симидзу, Такаши Цукамото...
Описание: Ученик средней школы Сикидзо Кёсуки является самым талантливым членом клуба кэмпо. Его покойный отец был детективом, и парень разделяет сильное чувство правосудия свего отца. Однажды, он спасает от хулиганов девушку по имени Химено Айко, в которую влюбляется с первого взгляда, но сбегает неузнанным ею. Когда при ограблении банка группа преступников взяла в заложники Айко, Кёсуке снова кидается спасти девушку, а чтобы не быть узнанным преступниками, парню надо скрыть лицо. Но, когда он случайно, вместо обычной маски, надевает на голову женские трусики, то с ним случается трансформация. Ведь он смог пробудить 100% скрытого потенциала своего тела и стать супер героем. Это необычная трансформация была передана ему на генном уровне от его родителей (а ведь семейка та еще: отец - мазохист, а мать - садистка). Кёсуке использует свою силу "Маски извращенца", чтобы победить преступников и сохранить любимую. Однако, парень не знает, что его неприятности только начались...
Релиз от -
Сэмпл: http://multi-up.com/975112
Качество видео: HDRip
Формат видео: AVI
Видео: MPEG-4 Visual at 2305 Кбит/сек; 704 x 400 (1.760) at 23.976 fps
Аудио: AC-3 at 192 Кбит/сек; 2 канала, 48,0 КГц [VO]
Аудио: AC-3 at 448 Кбит/сек; 6 каналов, 48,0 КГц [Jpn]
Автор:
MediaInfo
Общее
Полное имя : D:\Фильмы\Азиатские\Извратная маска\HK Hentai Kamen.2013.HDRip.XviD.2200MB. rip by [Assassin's Creed]\HK Hentai Kamen.2013.HDRip.XviD.2200MB. rip by [Assassin's Creed].avi
Формат : AVI
Формат/Информация : Audio Video Interleave
Профиль формата : OpenDML
Размер файла : 2,18 Гбайт
Продолжительность : 1 ч. 45 м.
Общий поток : 2962 Кбит/сек
Программа кодирования : VirtualDubMod 1.5.10.2 (build 2540/release)
Библиотека кодирования : VirtualDubMod build 2540/release
Видео
Идентификатор : 0
Формат : MPEG-4 Visual
Профиль формата : Advanced Simple@L5
Параметр BVOP формата : 1
Параметр QPel формата : Нет
Параметр GMC формата : Без точки перехода
Параметр матрицы формата : Default (MPEG)
Идентификатор кодека : XVID
Идентификатор кодека/Подсказка : XviD
Продолжительность : 1 ч. 45 м.
Битрейт : 2305 Кбит/сек
Ширина : 704 пикселя
Высота : 400 пикселей
Соотношение сторон : 16:9
Частота кадров : 23,976 кадра/сек
Цветовое пространство : YUV
Субдискретизация насыщенности : 4:2:0
Битовая глубина : 8 бит
Тип развёртки : Прогрессивная
Метод сжатия : С потерями
Бит/(Пиксели*Кадры) : 0.341
Размер потока : 1,70 Гбайт (78%)
Библиотека кодирования : XviD 1.2.1 (UTC 2008-12-04)
Аудио #1
Идентификатор : 1
Формат : AC-3
Формат/Информация : Audio Coding 3
Расширение режима : CM (complete main)
Параметр Endianness формата : Big
Идентификатор кодека : 2000
Продолжительность : 1 ч. 45 м.
Вид битрейта : Постоянный
Битрейт : 192 Кбит/сек
Каналы : 2 канала
Расположение каналов : Front: L R
Частота : 48,0 КГц
Битовая глубина : 16 бит
Метод сжатия : С потерями
Размер потока : 145 Мбайт (6%)
Выравнивание : Разделение по промежуткам
Продолжительность промежутка : 42 мс. (1,00 видеокадр)
Время предзагрузки промежутка : 500 мс.
Аудио #2
Идентификатор : 2
Формат : AC-3
Формат/Информация : Audio Coding 3
Расширение режима : CM (complete main)
Параметр Endianness формата : Big
Идентификатор кодека : 2000
Продолжительность : 1 ч. 45 м.
Вид битрейта : Постоянный
Битрейт : 448 Кбит/сек
Каналы : 6 каналов
Расположение каналов : Front: L C R, Side: L R, LFE
Частота : 48,0 КГц
Битовая глубина : 16 бит
Метод сжатия : С потерями
Размер потока : 338 Мбайт (15%)
Выравнивание : Разделение по промежуткам
Продолжительность промежутка : 42 мс. (1,00 видеокадр)
Время предзагрузки промежутка : 500 мс.
Общее
Полное имя : D:\Фильмы\Азиатские\Извратная маска\HK Hentai Kamen.2013.HDRip.XviD.2200MB. rip by [Assassin's Creed]\HK Hentai Kamen.Eng.srt
Формат : SubRip
Размер файла : 90,6 Кбайт
Текст
Формат : SubRip
Метод сжатия : Без потерь
Общее
Полное имя : D:\Фильмы\Азиатские\Извратная маска\HK Hentai Kamen.2013.HDRip.XviD.2200MB. rip by [Assassin's Creed]\HK Hentai Kamen.Ger.srt
Формат : SubRip
Размер файла : 86,5 Кбайт
Текст
Формат : SubRip
Метод сжатия : Без потерь
Общее
Полное имя : D:\Фильмы\Азиатские\Извратная маска\HK Hentai Kamen.2013.HDRip.XviD.2200MB. rip by [Assassin's Creed]\HK Hentai Kamen.Rus.srt
Формат : SubRip
Размер файла : 110 Кбайт
Текст
Формат : SubRip
Метод сжатия : Без потерь
Скриншот c названием фильма Скриншоты
Скачать

Скачать торрент! Извратная маска / Маска извращенца / Трусонюх / Хентай Камен / HK Hentai Kamen (Юити Фукуда / Yuuichi Fukuda) [2013, Япония, комедия, боевик, комикс, HDRip] VO (den904) + Original JPN + Subs (Rus, Eng, Ger)

Как скачивать? · Что такое торрент? · Рейтинг и ограничения

Сайт не распространяет и не хранит электронные версии произведений, а лишь предоставляет доступ к создаваемому пользователями каталогу ссылок на торрент-файлы, которые содержат только списки хеш-сумм

[Профиль] [ЛС]
Показать сообщения:    
Ответить на тему

Текущее время: Сегодня 22:13

Часовой пояс: GMT + 4



Вы не можете начинать темы
Вы не можете отвечать на сообщения
Вы не можете редактировать свои сообщения
Вы не можете удалять свои сообщения
Вы не можете голосовать в опросах
Вы не можете прикреплять файлы к сообщениям
Вы не можете скачивать файлы