Му-Му (Юрий Грымов) [1998, драма, DVDRip-AVC]

Ответить на тему
 
Автор Сообщение

user ®

Стаж: 7 лет 7 месяцев

Сообщений: 20008

Пост Пост: #1 от 21-Май-2014 09:00

[Цитировать]

Му-Му
Жанр: драма
Год выпуска: 1998
Продолжительность: 01:36:27
Режиссёр: Юрий Грымов
В ролях: Александр Балуев, Людмила Максакова, Ирина Апексимова, Елена Корикова, Владимир Стеклов, Андрей Мартынов, Дмитрий Шевченко, Геннадий Назаров, Раиса Рязанова, Евдокия Вишнякова, Андрей Халимон, Алексей Кравченко, Екатерина Стриженова, Федор Валиков, Галина Демина, Елена Захарова, Вячеслав Молоков, Наталья Потапова, Сергей Рубеко, Инна Сухарева, Наталья Хорохорина, Юрий Чернов, Григорий Маликов
Описание: Сильному и неординарному, но недоброму человеку дана почти безграничная власть над другими людьми. Сознательно лишая себя многих житейских радостей и пытаясь изжить в себе естественные человеческие чувства, героиня загоняет себя в угол. Осознав, что попытка не увенчалась успехом и страдая от этого, она обрекает на страдания и других, беззащитных перед ее волей, ломает их судьбы.
Семпл: http://multi-up.com/975058
Качество видео: DVDRip-AVC
Формат видео: MKV
Видео: 712@760@472, 25.000 fps, x264 High@L4.1, ~1840 kbps
Аудио: 48 kHz, AC3 Dolby Digital, 2/0 (L,R) ch, ~192 kbps
MediaInfo
Общее
Уникальный идентификатор : 186316471441543493032003223564721872841 (0x8C2B3F451A76A23F9017313B33C85FC9)
Полное имя : D:\Му-Му_1998-DVDRip-AVC.mkv
Формат : Matroska
Версия формата : Version 2
Размер файла : 1,37 Гбайт
Продолжительность : 1 ч. 36 м.
Общий поток : 2034 Кбит/сек
Дата кодирования : UTC 2014-05-20 17:02:15
Программа кодирования : mkvmerge v5.2.0 ('I can't explain') built on Dec 18 2011 18:12:03
Библиотека кодирования : libebml v1.2.3 + libmatroska v1.3.0
Видео
Идентификатор : 1
Формат : AVC
Формат/Информация : Advanced Video Codec
Профиль формата : High@L4.1
Параметр CABAC формата : Да
Параметр ReFrames формата : 14 кадров
Идентификатор кодека : V_MPEG4/ISO/AVC
Продолжительность : 1 ч. 36 м.
Битрейт : 1840 Кбит/сек
Ширина : 712 пикселей
Высота : 472 пикселя
Соотношение сторон : 16:10
Соотношение сторон в оригинале : 16:10
Режим частоты кадров : Постоянный
Частота кадров : 25,000 кадров/сек
Цветовое пространство : YUV
Субдискретизация насыщенности : 4:2:0
Битовая глубина : 8 бит
Тип развёртки : Прогрессивная
Бит/(Пиксели*Кадры) : 0.219
Размер потока : 1,21 Гбайт (89%)
Библиотека кодирования : x264 core 130 r2273 b3065e6
Настройки программы : cabac=1 / ref=14 / deblock=1:-2:-2 / analyse=0x3:0x133 / me=umh / subme=11 / psy=1 / psy_rd=1.05:0.05 / mixed_ref=1 / me_range=24 / chroma_me=1 / trellis=2 / 8x8dct=1 / cqm=0 / deadzone=21,11 / fast_pskip=0 / chroma_qp_offset=-3 / threads=12 / lookahead_threads=2 / sliced_threads=0 / nr=0 / decimate=0 / interlaced=0 / bluray_compat=0 / constrained_intra=0 / bframes=7 / b_pyramid=2 / b_adapt=2 / b_bias=0 / direct=3 / weightb=1 / open_gop=0 / weightp=2 / keyint=250 / keyint_min=25 / scenecut=40 / intra_refresh=0 / rc_lookahead=60 / rc=2pass / mbtree=1 / bitrate=1840 / ratetol=1.0 / qcomp=0.65 / qpmin=0 / qpmax=55 / qpstep=4 / cplxblur=20.0 / qblur=0.5 / ip_ratio=1.30 / aq=1:1.00
Язык : English
Default : Да
Forced : Нет
Основные цвета : BT.601 PAL
Характеристики трансфера : BT.470 System B, BT.470 System G
Коэффициенты матрицы : BT.601
Аудио
Идентификатор : 2
Формат : AC-3
Формат/Информация : Audio Coding 3
Расширение режима : CM (complete main)
Параметр Endianness формата : Big
Идентификатор кодека : A_AC3
Продолжительность : 1 ч. 36 м.
Вид битрейта : Постоянный
Битрейт : 192 Кбит/сек
Каналы : 2 канала
Расположение каналов : Front: L R
Частота : 48,0 КГц
Битовая глубина : 16 бит
Метод сжатия : С потерями
Размер потока : 132 Мбайт (9%)
Язык : Russian
Default : Да
Forced : Нет
Скриншоты
Скачать

Скачать торрент!

Как скачивать? · Что такое торрент? · Рейтинг и ограничения

Сайт не распространяет и не хранит электронные версии произведений, а лишь предоставляет доступ к создаваемому пользователями каталогу ссылок на торрент-файлы, которые содержат только списки хеш-сумм

[Профиль] [ЛС]
Показать сообщения:    
Ответить на тему

Текущее время: Сегодня 14:33

Часовой пояс: GMT + 4



Вы не можете начинать темы
Вы не можете отвечать на сообщения
Вы не можете редактировать свои сообщения
Вы не можете удалять свои сообщения
Вы не можете голосовать в опросах
Вы не можете прикреплять файлы к сообщениям
Вы не можете скачивать файлы