Человек и закон / Kudrat Ka Kanoon (К.С. Бокадиа / K.C. Bokadia, С.Эй. Чандрашекхар / S.A. Chandrashekhar) [1987, Индия, Драма, боевик, DVDRip] MVO (Zee TV)

Ответить на тему
 
Автор Сообщение

user ®

Стаж: 9 лет 7 месяцев

Сообщений: 18988

Пост Пост: #1 от 21-Май-2014 02:40

[Цитировать]

Человек и закон / Kudrat Ka Kanoon- Страна: Индия
Жанр: Драма, боевик
Год выпуска: 1987
Продолжительность: 02:31:39-Перевод: Профессиональный (многоголосый закадровый) - Zee TV
Cубтитры: Нет--Режиссеры:
К.С. Бокадиа / K.C. Bokadia
С.Эй. Чандрашекхар / S.A. Chandrashekhar
-В ролях: Рамеш Део, Хема Малини, К.С. Дюбей, Бэби Гудду, Шафи Инамдар, Сатиендра Капур, Киран Кумар, Раза Мурад, Пран, Чаран Радж, Радхика, Ом Шивпури, Джеки Шрофф, Тику Талсания, Бина Банерджи--Описание: Виджай Верма (Джеки Шрофф) живет в небольшом городке вместе с женой (Радхика) и дочерью (Бэби Гудду). Однажды он приходит на помощь рабочему, которого избивали люди бандита Дхарамраджа (Ом Шивпури), который решил отомстить смельчаку. Виджая обвиняют в убийстве. Отсидев в тюрьме пять лет, он возвращается домой, но там его никто не ждет. Его жена оказалась в доме терпимости, что же произошло за эти пять лет? Виджай обязан выяснить правду и отомстить своему врагу.--Внимание! Рекомендовано возрастное ограничение при просмотре! (сцены насилия)-- | --Качество видео: DVDRip
Формат видео: AVI-Видео: 576x448 (1.29:1), 23.976 fps, XviD build 50 ~1239 kbps avg, 0.20 bit/pixel
Аудио: 48 kHz, MPEG Layer 3, 2 ch, ~128.00 kbps-Доп. информация: Канал вещает с легким запинанием звука (1-ая часть фильма)-Риппер, синхронизация аудио: soso4eg-Сэмпл / Sample-- -
-
Скриншоты
-
MI
Общее
Полное имя : P:\[Релизы]\Chelovek.I.Zakon.1987.DVDRip.XviD-soso4eg.avi
Формат : AVI
Формат/Информация : Audio Video Interleave
Размер файла : 1,46 Гбайт
Продолжительность : 2 ч. 31 м.
Общий поток : 1377 Кбит/сек
Название фильма : Chelovek.I.Zakon.1987.DVDRip.XviD-soso4eg
Режиссёр : soso4eg
Программа кодирования : VirtualDubMod 1.5.10.3 | www.virtualdub-fr.org || (build 2550/release)
Правообладатель : специально для BitTorrent трекер *** (ex torrents.ru)
Примечание : пер. ZeeTV
Видео
Идентификатор : 0
Формат : MPEG-4 Visual
Профиль формата : Advanced Simple@L5
Параметр BVOP формата : 2
Параметр QPel формата : Нет
Параметр GMC формата : Без точки перехода
Параметр матрицы формата : Default (H.263)
Идентификатор кодека : XVID
Идентификатор кодека/Подсказка : XviD
Продолжительность : 2 ч. 31 м.
Битрейт : 1240 Кбит/сек
Ширина : 576 пикселей
Высота : 448 пикселей
Соотношение сторон : 1,286
Частота кадров : 23,976 кадра/сек
Цветовое пространство : YUV
Субдискретизация насыщенности : 4:2:0
Битовая глубина : 8 бит
Тип развёртки : Прогрессивная
Метод сжатия : С потерями
Бит/(Пиксели*Кадры) : 0.200
Размер потока : 1,31 Гбайт (90%)
Библиотека кодирования : XviD 1.2.1 (UTC 2008-12-04)
Аудио
Идентификатор : 1
Формат : MPEG Audio
Версия формата : Version 1
Профиль формата : Layer 3
Режим : Joint stereo
Расширение режима : MS Stereo
Идентификатор кодека : 55
Идентификатор кодека/Подсказка : MP3
Продолжительность : 2 ч. 31 м.
Вид битрейта : Постоянный
Битрейт : 128 Кбит/сек
Каналы : 2 канала
Частота : 48,0 КГц
Метод сжатия : С потерями
Размер потока : 139 Мбайт (9%)
Выравнивание : Соединение по промежуткам
Продолжительность промежутка : 42 мс. (1,00 видеокадр)
Время предзагрузки промежутка : 504 мс.

-
-
Скачать

Скачать торрент!

Как скачивать? · Что такое торрент? · Рейтинг и ограничения

Сайт не распространяет и не хранит электронные версии произведений, а лишь предоставляет доступ к создаваемому пользователями каталогу ссылок на торрент-файлы, которые содержат только списки хеш-сумм

загрузка...
[Профиль] [ЛС]

kaptan2222

Стаж: 9 месяцев 23 дня

Сообщений: 1

Пост Пост: #2 от 15-Фев-2018 20:56 (спустя 3 года 8 месяцев)

[Цитировать]

семя лютфена
[Профиль] [ЛС]
Показать сообщения:    
Ответить на тему

Текущее время: Сегодня 21:26

Часовой пояс: GMT + 4



Вы не можете начинать темы
Вы не можете отвечать на сообщения
Вы не можете редактировать свои сообщения
Вы не можете удалять свои сообщения
Вы не можете голосовать в опросах
Вы не можете прикреплять файлы к сообщениям
Вы не можете скачивать файлы