Любовь в космосе / Love in Space / Quan qiu re lian (Винг Шья / Wing Shya, Тони Чан / Tony Chan) [2011, Гонконг, Китай, США, мелодрама, комедия, DVDRip-AVC] MVO (1 канал)

Ответить на тему
 
Автор Сообщение

user ®

Стаж: 11 лет

Сообщений: 15151

Пост Пост: #1 от 20-Май-2014 23:30

[Цитировать]

Любовь в космосе / Love in Space / Quan qiu re lian
Страна: Гонконг, Китай, США
Жанр: мелодрама, комедия
Год выпуска: 2011
Продолжительность: 01:43:59
Перевод: Профессиональный (многоголосый закадровый) "AB Video" по заказу 1 канала
Cубтитры: нет
Оригинальная аудиодорожка: китайский
Режиссер: Винг Шья / Wing Shya, Тони Чан / Tony Chan
В ролях: Аарон Квок, Рене Лю, Изон Чан, Квай Лунь-Мей, Анджелабейби, Цзин Боран, Чапман То
Описание: Три сестры Лили, Роза и Пион успешны во всем, кроме любви, что невероятно огорчает их мать. Однако девушки не сидят сложа руки и пытаются найти свои вторые половинки в самых неожиданных местах: в Пекине, Сиднее и даже на Луне...
Сэмпл: http://multi-up.com/975019
Качество видео: DVDRip-AVC
Формат видео: MKV
Видео: AVC, 720x304 (2.35), 23.976 fps, 1 434 Kbps (0.266 bit/pixel)
Аудио: AC-3, 48.0 KHz, 2 ch, 192 Kbps, CBR (Russian)
Аудио 2: AC-3, 48.0 KHz, 6 ch, 448 Kbps, CBR (Chinese)
MediaInfo
Общее
Уникальный идентификатор : 239597162441234434634739587455469048874 (0xB440BC273A7B9348A66633DE9679542A)
Полное имя : K:\Любовь в космосе.mkv
Формат : Matroska
Версия формата : Version 2
Размер файла : 1,51 Гбайт
Продолжительность : 1 ч. 43 м.
Общий поток : 2076 Кбит/сек
Название фильма : Love.in.Space.2011.DVDRip.x264.AC3-Zoo
Дата кодирования : UTC 2014-05-20 13:47:46
Программа кодирования : mkvmerge v6.1.0 ('Old Devil') built on Mar 2 2013 14:32:37
Библиотека кодирования : libebml v1.3.0 + libmatroska v1.4.0
Видео
Идентификатор : 1
Формат : AVC
Формат/Информация : Advanced Video Codec
Профиль формата : High@L4.1
Параметр CABAC формата : Да
Параметр ReFrames формата : 4 кадра
Идентификатор кодека : V_MPEG4/ISO/AVC
Продолжительность : 1 ч. 43 м.
Битрейт : 1434 Кбит/сек
Ширина : 720 пикселей
Высота : 304 пикселя
Соотношение сторон : 2,35:1
Режим частоты кадров : Постоянный
Частота кадров : 23,976 кадра/сек
Цветовое пространство : YUV
Субдискретизация насыщенности : 4:2:0
Битовая глубина : 8 бит
Тип развёртки : Прогрессивная
Бит/(Пиксели*Кадры) : 0.273
Размер потока : 1,01 Гбайт (67%)
Заголовок : Любовь в космосе / Love in Space / Quan qiu re lian (2011)
Библиотека кодирования : x264 core 120 r2164 da19765
Настройки программы : cabac=1 / ref=3 / deblock=1:0:0 / analyse=0x3:0x113 / me=umh / subme=7 / psy=1 / psy_rd=1.00:0.00 / mixed_ref=1 / me_range=16 / chroma_me=1 / trellis=1 / 8x8dct=1 / cqm=0 / deadzone=21,11 / fast_pskip=1 / chroma_qp_offset=-2 / threads=12 / sliced_threads=0 / nr=0 / decimate=1 / interlaced=0 / bluray_compat=0 / constrained_intra=0 / bframes=3 / b_pyramid=2 / b_adapt=1 / b_bias=0 / direct=3 / weightb=1 / open_gop=0 / weightp=2 / keyint=250 / keyint_min=23 / scenecut=40 / intra_refresh=0 / rc_lookahead=40 / rc=2pass / mbtree=1 / bitrate=1434 / ratetol=1.0 / qcomp=0.60 / qpmin=0 / qpmax=69 / qpstep=4 / cplxblur=20.0 / qblur=0.5 / ip_ratio=1.40 / aq=1:1.00
Язык : Chinese
Default : Нет
Forced : Нет
Аудио #1
Идентификатор : 2
Формат : AC-3
Формат/Информация : Audio Coding 3
Расширение режима : CM (complete main)
Параметр Endianness формата : Big
Идентификатор кодека : A_AC3
Продолжительность : 1 ч. 43 м.
Вид битрейта : Постоянный
Битрейт : 192 Кбит/сек
Каналы : 2 канала
Расположение каналов : Front: L R
Частота : 48,0 КГц
Битовая глубина : 16 бит
Метод сжатия : С потерями
Размер потока : 143 Мбайт (9%)
Заголовок : Профессиональный (многоголосый закадровый) 1 канал
Язык : Russian
Default : Да
Forced : Нет
Аудио #2
Идентификатор : 3
Формат : AC-3
Формат/Информация : Audio Coding 3
Расширение режима : CM (complete main)
Параметр Endianness формата : Big
Идентификатор кодека : A_AC3
Продолжительность : 1 ч. 43 м.
Вид битрейта : Постоянный
Битрейт : 448 Кбит/сек
Каналы : 6 каналов
Расположение каналов : Front: L C R, Side: L R, LFE
Частота : 48,0 КГц
Битовая глубина : 16 бит
Метод сжатия : С потерями
Задержка видео : 256 мс.
Размер потока : 333 Мбайт (22%)
Заголовок : Chinese
Язык : Chinese
Default : Нет
Forced : Нет
Скриншоты
Скачать

Скачать торрент! Любовь в космосе / Love in Space / Quan qiu re lian (Винг Шья / Wing Shya, Тони Чан / Tony Chan) [2011, Гонконг, Китай, США, мелодрама, комедия, DVDRip-AVC] MVO (1 канал)

Как скачивать? · Что такое торрент? · Рейтинг и ограничения

Сайт не распространяет и не хранит электронные версии произведений, а лишь предоставляет доступ к создаваемому пользователями каталогу ссылок на торрент-файлы, которые содержат только списки хеш-сумм

[Профиль] [ЛС]
Показать сообщения:    
Ответить на тему

Текущее время: Сегодня 16:32

Часовой пояс: GMT + 4



Вы не можете начинать темы
Вы не можете отвечать на сообщения
Вы не можете редактировать свои сообщения
Вы не можете удалять свои сообщения
Вы не можете голосовать в опросах
Вы не можете прикреплять файлы к сообщениям
Вы не можете скачивать файлы