Джек Райан: Теория хаоса / Jack Ryan: Shadow Recruit (Кеннет Брана / Kenneth Branagh) [2014, США, Россия, боевик, триллер, криминал, детектив, BDRip-AVC] Dub + Original (Eng) + Subs

Ответить на тему
 
Автор Сообщение

user ®

Стаж: 7 лет 7 месяцев

Сообщений: 20008

Пост Пост: #1 от 20-Май-2014 23:30

[Цитировать]

Джек Райан: Теория хаоса / Jack Ryan: Shadow Recruit
«Главное оружие – интеллект»
- Страна: США, Россия | Buckaroo Entertainment, Di Bonaventura Pictures, Etalon film, Mace Neufeld Productions, Paramount Pictures, Skydance Productions
Жанр: боевик, триллер, криминал, детектив
Год выпуска: 2014
Продолжительность: 01:45:32 час.
Перевод: Профессиональный (полное дублирование) - BluRay CEE
Субтитры: Русские (Full), Английские (Full, SDH, SDH-Colored)
Оригинальная аудиодорожка: Английская
Режиссер: Кеннет Брана / Kenneth Branagh
В ролях: Крис Пайн (Jack Ryan), Кира Найтли (Cathy Muller), Кеннет Брана (Viktor Cherevin), Кевин Костнер (Thomas Harper), Алек Утгофф (Aleksandr Borovsky), Джемма Чан (Amy Chang), Петер Андерссон (Dimitri Lemkov), Елена Великанова (Katya), Нонсо Анози (Embee Deng), Колм Фиор (Rob Behringer)
Описание: Рядовой аналитик ЦРУ Джек Райан приезжает в Москву, чтобы решить простую задачу: ему нужно проверить операции компании, принадлежащей миллиардеру Виктору Черевину. Но все усложняется, когда Райана пытаются убить. Теперь он вынужден защищаться с оружием в руках, вспоминая армейские навыки и неожиданно для себя оказываясь в роли настоящего спецагента. На помощь Джеку приходят маститый офицер спецслужб Харпер и внезапно оказавшаяся в Москве супруга Кэти. Но облегчит ли это миссию, которую теперь предстоит выполнить Райану, — предотвратить международный заговор, грозящий погрузить весь мир в хаос?

Качество видео: BDRip-AVC | исх. Джек Райан: Теория хаоса / Jack Ryan: Shadow Recruit (2014) Blu-ray CEE 1080p AVC DD5.1-TTG
Формат видео: MKV
Релиз от RG MATROSKA
Автор рипа zOJIOtOi
Видео: 1152x480p (2.40:1), 23,976 fps, H.264 ~4 446 kbps avg, 0.328 bit/pixel
Аудио #1: 48 kHz, AC3, 3/2 (L,C,R,l,r) + LFE ch, ~448.00 kbps avg | Профессиональный (полное дублирование) - BluRay CEE
Аудио #2: 48 kHz, AC3, 3/2 (L,C,R,l,r) + LFE ch, ~448.00 kbps avg | Оригинал (английский)
Формат субтитров: softsub (SRT)
MediaInfo | log x264
log x264
avs [info]: 1152x480p 1:1 @ 2997/125 fps (cfr)
x264 [info]: using SAR=1/1
x264 [info]: using cpu capabilities: MMX2 SSE2Fast SSSE3 SSE4.2 AVX
x264 [info]: profile High, level 4.1
x264 [info]: frame I:1159 Avg QP:14.72 size: 81664
x264 [info]: frame P:31893 Avg QP:16.13 size: 41689
x264 [info]: frame B:118772 Avg QP:18.51 size: 17641
x264 [info]: consecutive B-frames: 2.6% 3.0% 7.2% 14.9% 15.2% 37.7% 6.9% 2.8% 2.5% 1.7% 1.5% 0.7% 1.2% 1.2% 0.5% 0.2% 0.3%
x264 [info]: mb I I16..4: 7.0% 77.2% 15.8%
x264 [info]: mb P I16..4: 1.0% 22.5% 1.7% P16..4: 23.3% 30.8% 12.9% 2.2% 0.1% skip: 5.4%
x264 [info]: mb B I16..4: 0.1% 4.0% 0.1% B16..8: 35.0% 23.2% 5.2% direct: 6.6% skip:25.7% L0:44.9% L1:44.0% BI:11.1%
x264 [info]: 8x8 transform intra:90.1% inter:55.7%
x264 [info]: coded y,uvDC,uvAC intra: 94.0% 89.0% 80.3% inter: 34.4% 25.9% 10.8%
x264 [info]: i16 v,h,dc,p: 41% 15% 6% 39%
x264 [info]: i8 v,h,dc,ddl,ddr,vr,hd,vl,hu: 8% 8% 14% 9% 12% 12% 12% 11% 13%
x264 [info]: i4 v,h,dc,ddl,ddr,vr,hd,vl,hu: 10% 10% 9% 8% 14% 12% 13% 10% 13%
x264 [info]: i8c dc,h,v,p: 53% 17% 12% 18%
x264 [info]: Weighted P-Frames: Y:3.8% UV:1.8%
x264 [info]: ref P L0: 44.1% 8.8% 17.9% 6.8% 6.2% 4.0% 3.5% 1.9% 1.8% 1.4% 1.3% 1.1% 1.1% 0.2% 0.0%
x264 [info]: ref B L0: 66.9% 13.3% 6.6% 3.6% 2.7% 2.2% 1.6% 1.0% 0.8% 0.7% 0.4% 0.2%
x264 [info]: ref B L1: 91.3% 8.7%
x264 [info]: kb/s:4446.42
x264 [total]: encoded 151824 frames, 1.31 fps, 4446.42 kb/s
Общее
Уникальный идентификатор : 176111425805841677528386555967550587184 (0x847DD3AC7ECF344EA023F7CF68090130)
Полное имя : D:\my rips\Jack.Ryan.Shadow.Recruit.2014.BDRip-AVC.Rus.Eng.Subs.by.zOJIOtOi.mkv
Формат : Matroska
Версия формата : Version 4 / Version 2
Размер файла : 3,94 Гбайт
Продолжительность : 1 ч. 45 м.
Общий поток : 5345 Кбит/сек
Дата кодирования : UTC 2014-05-19 12:07:01
Программа кодирования : mkvmerge v6.1.0 ('Old Devil') built on Mar 4 2013 09:10:42
Библиотека кодирования : libebml v1.3.0 + libmatroska v1.4.0
Видео
Идентификатор : 1
Формат : AVC
Формат/Информация : Advanced Video Codec
Профиль формата : High@L4.1
Параметр CABAC формата : Да
Параметр ReFrames формата : 13 кадров
Идентификатор кодека : V_MPEG4/ISO/AVC
Продолжительность : 1 ч. 45 м.
Битрейт : 4343 Кбит/сек
Ширина : 1152 пикселя
Высота : 480 пикселей
Соотношение сторон : 2,40:1
Режим частоты кадров : Постоянный
Частота кадров : 23,976 кадра/сек
Цветовое пространство : YUV
Субдискретизация насыщенности : 4:2:0
Битовая глубина : 8 бит
Тип развёртки : Прогрессивная
Бит/(Пиксели*Кадры) : 0.328
Размер потока : 3,20 Гбайт (81%)
Заголовок : Jack.Ryan.Shadow.Recruit.2014.BDRip-AVC.by.zOJIOtOi
Библиотека кодирования : x264 core 130 r2273 b3065e6
Настройки программы : cabac=1 / ref=13 / deblock=1:-3:-3 / analyse=0x3:0x133 / me=umh / subme=11 / psy=1 / psy_rd=1.00:0.00 / mixed_ref=1 / me_range=48 / chroma_me=1 / trellis=2 / 8x8dct=1 / cqm=0 / deadzone=21,11 / fast_pskip=1 / chroma_qp_offset=-2 / threads=6 / lookahead_threads=1 / sliced_threads=0 / nr=0 / decimate=1 / interlaced=0 / bluray_compat=0 / constrained_intra=0 / bframes=16 / b_pyramid=2 / b_adapt=2 / b_bias=0 / direct=1 / weightb=1 / open_gop=0 / weightp=2 / keyint=240 / keyint_min=23 / scenecut=40 / intra_refresh=0 / rc_lookahead=60 / rc=crf / mbtree=0 / crf=17.4 / qcomp=0.70 / qpmin=0 / qpmax=69 / qpstep=4 / vbv_maxrate=50000 / vbv_bufsize=62500 / crf_max=0.0 / nal_hrd=none / ip_ratio=1.40 / pb_ratio=1.30 / aq=1:1.00
Язык : English
Default : Да
Forced : Нет
Аудио #1
Идентификатор : 2
Формат : AC-3
Формат/Информация : Audio Coding 3
Расширение режима : CM (complete main)
Параметр Endianness формата : Big
Идентификатор кодека : A_AC3
Продолжительность : 1 ч. 45 м.
Вид битрейта : Постоянный
Битрейт : 448 Кбит/сек
Каналы : 6 каналов
Расположение каналов : Front: L C R, Side: L R, LFE
Частота : 48,0 КГц
Битовая глубина : 16 бит
Метод сжатия : С потерями
Размер потока : 338 Мбайт (8%)
Заголовок : Профессиональный (полное дублирование) | DD 5.1 @ 448 kbps - BD CEE
Язык : Russian
Default : Да
Forced : Да
Аудио #2
Идентификатор : 3
Формат : AC-3
Формат/Информация : Audio Coding 3
Расширение режима : CM (complete main)
Параметр Endianness формата : Big
Идентификатор кодека : A_AC3
Продолжительность : 1 ч. 45 м.
Вид битрейта : Постоянный
Битрейт : 448 Кбит/сек
Каналы : 6 каналов
Расположение каналов : Front: L C R, Side: L R, LFE
Частота : 48,0 КГц
Битовая глубина : 16 бит
Метод сжатия : С потерями
Размер потока : 338 Мбайт (8%)
Заголовок : Оригинал (английский) | DD 5.1 @ 448 kbps
Язык : English
Default : Нет
Forced : Нет
Текст #1
Идентификатор : 4
Формат : UTF-8
Идентификатор кодека : S_TEXT/UTF8
Идентификатор кодека/Информация : UTF-8 Plain Text
Заголовок : Full
Язык : Russian
Default : Нет
Forced : Нет
Текст #2
Идентификатор : 5
Формат : UTF-8
Идентификатор кодека : S_TEXT/UTF8
Идентификатор кодека/Информация : UTF-8 Plain Text
Заголовок : Full
Язык : English
Default : Нет
Forced : Нет
Текст #3
Идентификатор : 6
Формат : UTF-8
Идентификатор кодека : S_TEXT/UTF8
Идентификатор кодека/Информация : UTF-8 Plain Text
Заголовок : SDH
Язык : English
Default : Нет
Forced : Нет
Текст #4
Идентификатор : 7
Формат : UTF-8
Идентификатор кодека : S_TEXT/UTF8
Идентификатор кодека/Информация : UTF-8 Plain Text
Заголовок : SDH-Colored
Язык : English
Default : Нет
Forced : Нет
Меню
00:05:45.470 : en:(01)00:05:45:470
00:12:02.471 : en:(02)00:12:02:471
00:18:11.006 : en:(03)00:18:11:006
00:23:38.792 : en:(04)00:23:38:792
00:31:19.794 : en:(05)00:31:19:794
00:40:26.298 : en:(06)00:40:26:298
00:48:47.466 : en:(07)00:48:47:466
00:57:28.069 : en:(08)00:57:28:069
01:06:19.642 : en:(09)01:06:19:642
01:13:07.466 : en:(10)01:13:07:466
01:21:53.867 : en:(11)01:21:53:867
01:27:07.096 : en:(12)01:27:07:096
01:35:21.507 : en:(13)01:35:21:507
01:38:55.054 : en:(14)01:38:55:054
01:45:32.117 : en:(15)01:45:32:117
Source vs Rip Скриншот c названием фильма Скриншоты
Скачать

Скачать торрент!

Как скачивать? · Что такое торрент? · Рейтинг и ограничения

Сайт не распространяет и не хранит электронные версии произведений, а лишь предоставляет доступ к создаваемому пользователями каталогу ссылок на торрент-файлы, которые содержат только списки хеш-сумм

[Профиль] [ЛС]
Показать сообщения:    
Ответить на тему

Текущее время: Сегодня 04:47

Часовой пояс: GMT + 4



Вы не можете начинать темы
Вы не можете отвечать на сообщения
Вы не можете редактировать свои сообщения
Вы не можете удалять свои сообщения
Вы не можете голосовать в опросах
Вы не можете прикреплять файлы к сообщениям
Вы не можете скачивать файлы