Подонки / Men From The Gutter / An qu (Лам Най Чой / Ngai Choi Lam) [1983, Гонконг, Китай, боевик, драма, DVDRip] VO (Shaman) + Sub Eng

Ответить на тему
 
Автор Сообщение

user ®

Стаж: 11 лет

Сообщений: 15151

Пост Пост: #1 от 20-Май-2014 14:25

[Цитировать]

Подонки / Men From The Gutter / An qu
Страна: Гонконг, Китай
Студия: Shaw Brothers
Жанр: боевик, драма
Год выпуска: 1983
Продолжительность: 01:23:42
Перевод: Одноголосый закадровый Shaman
Cубтитры: английские (отдельным файлом)
Оригинальная аудиодорожка: китайский
Режиссер: Лам Най Чой / Ngai Choi Lam
В ролях: Джейсон Пай, Ли Хой Сан, Ло Менг, Миу Киу Ваи, Паркман Вонг
Описание: Трое бывших зэка (Parkman Wong,Lung Tin Sang и Billy Lau Nam Kwong), недавно освободившись, хотят по быстрому отхватить бабла и готовят ограбление ювелирного магазина.Случайно на одного из них - с пистолетом за пазухой, натыкается полицейский патруль и один из служителей закона погибает в перестрелке.Примерно в это же время подручного (Lee Hoi San) одного из крупных боссов наркомафии (Wong Yung) убивает приезжий киллер (Jason Pai Piao).Оба эти дела расследуются в одном из участков Гонконгской полиции и занимаются ими инспектор Ци Чженьмин (Michael Miu) и сержант Чао (Lo Meng).
II Сэмпл II IMDB II
Качество видео: DVDRip
Формат видео: AVI
Видео: Xvid 720x304 (2.37:1) 23.970fps Bit rate 1919Kbps b/p 0.292
Аудио 1: АС3 48.0 KHz 2ch. 192kbps rus vo
Аудио 2: АС3 48.0 KHz 2ch. 192kbps Canton
Аудио 3: АС3 48.0 KHz 2ch. 192kbps Mandarin
Формат субтитров: softsub (SRT)
MediaInfo
Общее
Полное имя : E:\torrent\Men.From.The.Gutter.DVDRip\Men.From.The.Gutter.DVDRip.avi
Формат : AVI
Формат/Информация : Audio Video Interleave
Размер файла : 1,47 Гбайт
Продолжительность : 1 ч. 23 м.
Общий поток : 2518 Кбит/сек
Программа кодирования : VirtualDubMod 1.5.10.3 (build 2550/release)
Библиотека кодирования : VirtualDubMod build 2550/release
Видео
Идентификатор : 0
Формат : MPEG-4 Visual
Профиль формата : Advanced Simple@L5
Параметр BVOP формата : 2
Параметр QPel формата : Нет
Параметр GMC формата : Без точки перехода
Параметр матрицы формата : Default (H.263)
Идентификатор кодека : XVID
Идентификатор кодека/Подсказка : XviD
Продолжительность : 1 ч. 23 м.
Битрейт : 1919 Кбит/сек
Ширина : 720 пикселей
Высота : 304 пикселя
Соотношение сторон : 2,35:1
Частота кадров : 29,970 кадров/сек
Цветовое пространство : YUV
Субдискретизация насыщенности : 4:2:0
Битовая глубина : 8 бит
Тип развёртки : Прогрессивная
Метод сжатия : С потерями
Бит/(Пиксели*Кадры) : 0.292
Размер потока : 1,12 Гбайт (76%)
Библиотека кодирования : XviD 1.2.1 (UTC 2008-12-04)
Аудио #1
Идентификатор : 1
Формат : AC-3
Формат/Информация : Audio Coding 3
Расширение режима : CM (complete main)
Параметр Endianness формата : Big
Идентификатор кодека : 2000
Продолжительность : 1 ч. 23 м.
Вид битрейта : Постоянный
Битрейт : 192 Кбит/сек
Каналы : 2 канала
Расположение каналов : Front: L R
Частота : 48,0 КГц
Битовая глубина : 16 бит
Метод сжатия : С потерями
Размер потока : 115 Мбайт (8%)
Выравнивание : Разделение по промежуткам
Продолжительность промежутка : 33 мс. (1,00 видеокадр)
Время предзагрузки промежутка : 500 мс.
Аудио #2
Идентификатор : 2
Формат : AC-3
Формат/Информация : Audio Coding 3
Расширение режима : CM (complete main)
Параметр Endianness формата : Big
Идентификатор кодека : 2000
Продолжительность : 1 ч. 23 м.
Вид битрейта : Постоянный
Битрейт : 192 Кбит/сек
Каналы : 2 канала
Расположение каналов : Front: L R
Частота : 48,0 КГц
Битовая глубина : 16 бит
Метод сжатия : С потерями
Размер потока : 115 Мбайт (8%)
Выравнивание : Разделение по промежуткам
Продолжительность промежутка : 33 мс. (1,00 видеокадр)
Время предзагрузки промежутка : 500 мс.
Аудио #3
Идентификатор : 3
Формат : AC-3
Формат/Информация : Audio Coding 3
Расширение режима : CM (complete main)
Параметр Endianness формата : Big
Идентификатор кодека : 2000
Продолжительность : 1 ч. 23 м.
Вид битрейта : Постоянный
Битрейт : 192 Кбит/сек
Каналы : 2 канала
Расположение каналов : Front: L R
Частота : 48,0 КГц
Битовая глубина : 16 бит
Метод сжатия : С потерями
Размер потока : 115 Мбайт (8%)
Выравнивание : Разделение по промежуткам
Продолжительность промежутка : 33 мс. (1,00 видеокадр)
Время предзагрузки промежутка : 500 мс.
Скриншот c названием фильма Скриншоты
Скачать

Скачать торрент! Подонки / Men From The Gutter / An qu (Лам Най Чой / Ngai Choi Lam) [1983, Гонконг, Китай, боевик, драма, DVDRip] VO (Shaman) + Sub Eng

Как скачивать? · Что такое торрент? · Рейтинг и ограничения

Сайт не распространяет и не хранит электронные версии произведений, а лишь предоставляет доступ к создаваемому пользователями каталогу ссылок на торрент-файлы, которые содержат только списки хеш-сумм

[Профиль] [ЛС]
Показать сообщения:    
Ответить на тему

Текущее время: Сегодня 15:10

Часовой пояс: GMT + 4



Вы не можете начинать темы
Вы не можете отвечать на сообщения
Вы не можете редактировать свои сообщения
Вы не можете удалять свои сообщения
Вы не можете голосовать в опросах
Вы не можете прикреплять файлы к сообщениям
Вы не можете скачивать файлы